<?xml version="1.0" standalone="no"?>
<!DOCTYPE svg PUBLIC "-//W3C//DTD SVG 1.1//EN" "../../../../../../../../www.w3.org/Graphics/SVG/1.1/DTD/svg11.dtd" >
<svg xmlns="http://www.w3.org/2000/svg">
<metadata></metadata>
<defs>
<font id="fontawesomeregular" horiz-adv-x="1536" >
<font-face units-per-em="1792" ascent="1536" descent="-256" />
<missing-glyph horiz-adv-x="448" />
<glyph unicode=" "  horiz-adv-x="448" />
<glyph unicode="&#x09;" horiz-adv-x="448" />
<glyph unicode="&#xa0;" horiz-adv-x="448" />
<glyph unicode="&#xa8;" horiz-adv-x="1792" />
<glyph unicode="&#xa9;" horiz-adv-x="1792" />
<glyph unicode="&#xae;" horiz-adv-x="1792" />
<glyph unicode="&#xb4;" horiz-adv-x="1792" />
<glyph unicode="&#xc6;" horiz-adv-x="1792" />
<glyph unicode="&#x2000;" horiz-adv-x="768" />
<glyph unicode="&#x2001;" />
<glyph unicode="&#x2002;" horiz-adv-x="768" />
<glyph unicode="&#x2003;" />
<glyph unicode="&#x2004;" horiz-adv-x="512" />
<glyph unicode="&#x2005;" horiz-adv-x="384" />
<glyph unicode="&#x2006;" horiz-adv-x="256" />
<glyph unicode="&#x2007;" horiz-adv-x="256" />
<glyph unicode="&#x2008;" horiz-adv-x="192" />
<glyph unicode="&#x2009;" horiz-adv-x="307" />
<glyph unicode="&#x200a;" horiz-adv-x="85" />
<glyph unicode="&#x202f;" horiz-adv-x="307" />
<glyph unicode="&#x205f;" horiz-adv-x="384" />
<glyph unicode="&#x2122;" horiz-adv-x="1792" />
<glyph unicode="&#x221e;" horiz-adv-x="1792" />
<glyph unicode="&#x2260;" horiz-adv-x="1792" />
<glyph unicode="&#xe000;" horiz-adv-x="500" d="M0 0z" />
<glyph unicode="&#xf000;" horiz-adv-x="1792" d="M1699 1350q0 -35 -43 -78l-632 -632v-768h320q26 0 45 -19t19 -45t-19 -45t-45 -19h-896q-26 0 -45 19t-19072F5ECA8B" />
<glyph unicode="&#xf001;" d="M1536 1312v-1120q0 -50 -34 -89t-86 -60.5t-103.5 -32t-96.5 -10.5t-96.5 10.5t-103.5 32t-86 60.5t-34 89t34 89t86 60.5t103.5 32t96.5 10.5q105 0 192 -39v537l-768 -237v-709q0 -50 -34 -89t-86 -60.5t-103.5 -32t-96.5 -10.5t-96.5 10.5t-103.5 32t-86 60.5t-34 89 t34 89t86 60.5t103.5 32t96.5 10.5q105 0 192 -39v967q0 31 19 56.5t49 35.5l832 256q12 4 28 4q40 0 68 -28t28 -68z" />
<glyph unicode="&#xf002;" horiz-adv-x="1664" d="M1152 704q0 185 -131.5 316.5t-316.5 131.5t-316.5 -131.5t-131.5 -316.5t131.5 -316.5t316.5 -131.5t316.5 131.5t131.5 316.5zM1664 -128q0 -52 -38 -90t-90 -38q-54 0 -90 38l-343 342q-179 -124 -399 -124q-143 0 -273.5 55.5t-225 150t-150 225t-55.5 273.5 t55.5 273.5t150 225t225 150t273.5 55.5t273.5 -55.5t225 -150t150 -225t55.5 -273.5q0 -220 -124 -399l343 -343q37 -37 37 -90z" />
<glyph unicode="&#xf003;" horiz-adv-x="1792" d="M1664 32v768q-32 -36 -69 -66q-268 -206 -426 -338q-51 -43 -83 -67t-86.5 -48.5t-102.5 -24.5h-1h-1q-48 0 -102.5 24.5t-86.5 48.5t-83 67q-158 132 -426 338q-37 30 -69 66v-768q0 -13 9.5 -22.5t22.5 -9.5h1472q13 0 22.5 9.5t9.5 22.5zM1664 1083v11v13.5t-0.5 13 t-3 12.5t-5.5 9t-9 7.5t-14 2.5h-1472q-13 0 -22.5 -9.5t-9.5 -22.5q0 -168 147 -284q193 -152 401 -317q6 -5 35 -29.5t46 -37.5t44.5 -31.5t50.5 -27.5t43 -9h1h1q20 0 43 9t50.5 27.5t44.5 31.5t46 37.5t35 29.5q208 165 401 317q54 43 100.5 115.5t46.5 131.5z M1792 1120v-1088q0 -66 -47 -113t-113 -47h-1472q-66 0 -113 47t-47 113v1088q0 66 47 113t113 47h1472q66 0 113 -47t47 -113z" />
<glyph unicode="&#xf004;" horiz-adv-x="1792" d="M896 -128q-26 0 -44 18l-624 602q-10 8 -27.5 26t-55.5 65.5t-68 97.5t-53.5 121t-23.5 138q0 220 127 344t351 124q62 0 126.5 -21.5t120 -58t95.5 -68.5t76 -68q36 36 76 68t95.5 68.5t120 58t126.5 21.5q224 0 351 -124t127 -344q0 -221 -229 -450l-623 -600 q-18 -18 -44 -18z" />
<glyph unicode="&#xf005;" horiz-adv-x="1664" d="M1664 889q0 -22 -26 -48l-363 -354l86 -500q1 -7 1 -20q0 -21 -10.5 -35.5t-30.5 -14.5q-19 0 -40 12l-449 236l-449 -236q-22 -12 -40 -12q-21 0 -31.5 14.5t-10.5 35.5q0 6 2 20l86 500l-364 354q-25 27 -25 48q0 37 56 46l502 73l225 455q19 41 49 41t49 -41l225 -455 l502 -73q56 -9 56 -46z" />
<glyph unicode="&#xf006;" horiz-adv-x="1664" d="M1137 532l306 297l-422 62l-189 382l-189 -382l-422 -62l306 -297l-73 -421l378 199l377 -199zM1664 889q0 -22 -26 -48l-363 -354l86 -500q1 -7 1 -20q0 -50 -41 -50q-19 0 -40 12l-449 236l-449 -236q-22 -12 -40 -12q-21 0 -31.5 14.5t-10.5 35.5q0 6 2 20l86 500 l-364 354q-25 27 -25 48q0 37 56 46l502 73l225 455q19 41 49 41t49 -41l225 -455l502 -73q56 -9 56 -46z" />
<glyph unicode="&#xf007;" horiz-adv-x="1408" d="M1408 131q0 -120 -73 -189.5t-194 -69.5h-874q-121 0 -194 69.5t-73 189.5q0 53 3.5 103.5t14 109t26.5 100424021ABF" />
<glyph unicode="&#xf008;" horiz-adv-x="1920" d="M384 -64v128q0 26 -19 45t-45 19h-128q-26 0 -45 -19t-19 -45v-128q0 -26 19 -45t45 -19h128q26 0 45 19t19 45zM384 320v128q0 26 -19 45t-45 19h-128q-26 0 -45 -19t-19 -45v-128q0 -26 19 -45t45 -19h128q26 0 45 19t19 45zM384 704v128q0 26 -19 45t-45 19h-128 q-26 0 -45 -19t-19 -45v-128q0 -26 19 -45t45 -19h128q26 0 45 19t19 45zM1408 -64v512q0 26 -19 45t-45 19h-768q-26 0 -45 -19t-19 -45v-512q0 -26 19 -45t45 -19h768q26 0 45 19t19 45zM384 1088v128q0 26 -19 45t-45 19h-128q-26 0 -45 -19t-19 -45v-128q0 -26 19 -45 t45 -19h128q26 0 45 19t19 45zM1792 -64v128q0 26 -19 45t-45 19h-128q-26 0 -45 -19t-19 -45v-128q0 -26 19 -45t45 -19h128q26 0 45 19t19 45zM1408 704v512q0 26 -19 45t-45 19h-768q-26 0 -45 -19t-19 -45v-512q0 -26 19 -45t45 -19h768q26 0 45 19t19 45zM1792 320v128 q0 26 -19 45t-45 19h-128q-26 0 -45 -19t-19 -45v-128q0 -26 19 -45t45 -19h128q26 0 45 19t19 45zM1792 704v128q0 26 -19 45t-45 19h-128q-26 0 -45 -19t-19 -45v-128q0 -26 19 -45t45 -19h128q26 0 45 19t19 45zM1792 1088v128q0 26 -19 45t-45 19h-128q-26 0 -45 -19 t-19 -45v-128q0 -26 19 -45t45 -19h128q26 0 45 19t19 45zM1920 1248v-1344q0 -66 -47 -113t-113 -47h-1600q-66 0 -113 47t-47 113v1344q0 66 47 113t113 47h1600q66 0 113 -47t47 -113z" />
<glyph unicode="&#xf009;" horiz-adv-x="1664" d="M768 512v-384q0 -52 -38 -90t-90 -38h-512q-52 0 -90 38t-38 90v384q0 52 38 90t90 38h512q52 0 90 -38t38 -90zM768 1280v-384q0 -52 -38 -90t-90 -38h-512q-52 0 -90 38t-38 90v384q0 52 38 90t90 38h512q52 0 90 -38t38 -90zM1664 512v-384q0 -52 -38 -90t-90 -38 h-512q-52 0 -90 38t-38 90v384q0 52 38 90t90 38h512q52 0 90 -38t38 -90zM1664 1280v-384q0 -52 -38 -90t-90 -38h-512q-52 0 -90 38t-38 90v384q0 52 38 90t90 38h512q52 0 90 -38t38 -90z" />
<glyph unicode="&#xf00a;" horiz-adv-x="1792" d="M512 288v-192q0 -40 -28 -68t-68 -28h-320q-40 0 -68 28t-28 68v192q0 40 28 68t68 28h320q40 0 68 -28t28 -68zM512 800v-192q0 -40 -28 -68t-68 -28h-320q-40 0 -68 28t-28 68v192q0 40 28 68t68 28h320q40 0 68 -28t28 -68zM1152 288v-192q0 -40 -28 -68t-68 -28h-320 q-40 0 -68 28t-28 68v192q0 40 28 68t68 28h320q40 0 68 -28t28 -68zM512 1312v-192q0 -40 -28 -68t-68 -28h-320q-40 0 -68 28t-28 68v192q0 40 28 68t68 28h320q40 0 68 -28t28 -68zM1152 800v-192q0 -40 -28 -68t-68 -28h-320q-40 0 -68 28t-28 68v192q0 40 28 68t68 28 h320q40 0 68 -28t28 -68zM1792 288v-192q0 -40 -28 -68t-68 -28h-320q-40 0 -68 28t-28 68v192q0 40 28 68t68 28h320q40 0 68 -28t28 -68zM1152 1312v-192q0 -40 -28 -68t-68 -28h-320q-40 0 -68 28t-28 68v192q0 40 28 68t68 28h320q40 0 68 -28t28 -68zM1792 800v-192 q0 -40 -28 -68t-68 -28h-320q-40 0 -68 28t-28 68v192q0 40 28 68t68 28h320q40 0 68 -28t28 -68zM1792 1312v-192q0 -40 -28 -68t-68 -28h-320q-40 0 -68 28t-28 68v192q0 40 28 68t68 28h320q40 0 68 -28t28 -68z" />
<glyph unicode="&#xf00b;" horiz-adv-x="1792" d="M512 288v-192q0 -40 -28 -68t-68 -28h-320q-40 0 -68 28t-28 68v192q0 40 28 68t68 28h320q40 0 68 -28t28 -68zM512 800v-192q0 -40 -28 -68t-68 -28h-320q-40 0 -68 28t-28 68v192q0 40 28 68t68 28h320q40 0 68 -28t28 -68zM1792 288v-192q0 -40 -28 -68t-68 -28h-960 q-40 0 -68 28t-28 68v192q0 40 28 68t68 28h960q40 0 68 -28t28 -68zM512 1312v-192q0 -40 -28 -68t-68 -28h-320q-40 0 -68 28t-28 68v192q0 40 28 68t68 28h320q40 0 68 -28t28 -68zM1792 800v-192q0 -40 -28 -68t-68 -28h-960q-40 0 -68 28t-28 68v192q0 40 28 68t68 28 h960q40 0 68 -28t28 -68zM1792 1312v-192q0 -40 -28 -68t-68 -28h-960q-40 0 -68 28t-28 68v192q0 40 28 68t68 28h960q40 0 68 -28t28 -68z" />
<glyph unicode="&#xf00c;" horiz-adv-x="1792" d="M1671 970q0 -40 -28 -68l-724 -724l-136 -136q-28 -28 -68 -28t-68 28l-136 136l-362 362q-28 28 -28 68t28 68l136 136q28 28 68 28t68 -28l294 -295l656 657q28 28 68 28t68 -28l136 -136q28 -28 28 -68z" />
<glyph unicode="&#xf00d;" horiz-adv-x="1408" d="M1298 214q0 -40 -28 -68l-136 -136q-28 -28 -68 -28t-68 28l-294 294l-294 -294q-28 -28 -68 -28t-68 28l-136 136q-28 28 -28 68t28 68l294 294l-294 294q-28 28 -28 68t28 68l136 136q28 28 68 28t68 -28l294 -294l294 294q28 28 68 28t68 -28l136 -136q28 -28 28 -68 t-28 -68l-294 -294l294 -294q28 -28 28 -68z" />
<glyph unicode="&#xf00e;" horiz-adv-x="1664" d="M1024 736v-64q0 -13 -9.5 -22.5t-22.5 -9.5h-224v-224q0 -13 -9.5 -22.5t-22.5 -9.5h-64q-13 0 -22.5 9.5t-9.5 22.5v224h-224q-13 0 -22.5 9.5t-9.5 22.5v64q0 13 9.5 22.5t22.5 9.5h224v224q0 13 9.5 22.5t22.5 9.5h64q13 0 22.5 -9.5t9.5 -22.5v-224h224 q13 0 22.5 -9.5t9.5 -22.5zM1152 704q0 185 -131.5 316.5t-316.5 131.5t-316.5 -131.5t-131.5 -316.5t131.5 -316.5t316.5 -131.5t316.5 131.5t131.5 316.5zM1664 -128q0 -53 -37.5 -90.5t-90.5 -37.5q-54 0 -90 38l-343 342q-179 -124 -399 -124q-143 0 -273.5 55.5 t-225 150t-150 225t-55.5 273.5t55.5 273.5t150 225t225 150t273.5 55.5t273.5 -55.5t225 -150t150 -225t55.5 -273.5q0 -220 -124 -399l343 -343q37 -37 37 -90z" />
<glyph unicode="&#xf010;" horiz-adv-x="1664" d="M1024 736v-64q0 -13 -9.5 -22.5t-22.5 -9.5h-576q-13 0 -22.5 9.5t-9.5 22.5v64q0 13 9.5 22.5t22.5 9.5h576q13 0 22.5 -9.5t9.5 -22.5zM1152 704q0 185 -131.5 316.5t-316.5 131.5t-316.5 -131.5t-131.5 -316.5t131.5 -316.5t316.5 -131.5t316.5 131.5t131.5 316.5z M1664 -128q0 -53 -37.5 -90.5t-90.5 -37.5q-54 0 -90 38l-343 342q-179 -124 -399 -124q-143 0 -273.5 55.5t-225 150t-150 225t-55.5 273.5t55.5 273.5t150 225t225 150t273.5 55.5t273.5 -55.5t225 -150t150 -225t55.5 -273.5q0 -220 -124 -399l343 -343q37 -37 37 -90z " />
<glyph unicode="&#xf011;" d="M1536 640q0 -156 -61 -298t-164 -245t-245 -164t-298 -61t-298 61t-245 164t-164 245t-61 298q0 182 80.5 343t226.5 270q43 32 95.5 25t83.5 -50q32 -42 24.5 -94.5t-49.5 -84.5q-98 -74 -151.5 -181t-53.5 -228q0 -104 40.5 -198.5t109.5 -163.5t163.5 -109.5 t198.5 -40.5t198.5 40.5t163.5 109.5t109.5 163.5t40.5 198.5q0 121 -53.5 228t-151.5 181q-42 32 -49.5 84.5t24.5 94.5q31 43 84 50t95 -25q146 -109 226.5 -270t80.5 -343zM896 1408v-640q0 -52 -38 -90t-90 -38t-90 38t-38 90v640q0 52 38 90t90 38t90 -38t38 -90z" />
<glyph unicode="&#xf012;" horiz-adv-x="1792" d="M256 96v-192q0 -14 -9 -23t-23 -9h-192q-14 0 -23 9t-9 23v192q0 14 9 23t23 9h192q14 0 23 -9t9 -23zM640 224v-320q0 -14 -9 -23t-23 -9h-192q-14 0 -23 9t-9 23v320q0 14 9 23t23 9h192q14 0 23 -9t9 -23zM1024 480v-576q0 -14 -9 -23t-23 -9h-192q-14 0 -23 9t-9 23 v576q0 14 9 23t23 9h192q14 0 23 -9t9 -23zM1408 864v-960q0 -14 -9 -23t-23 -9h-192q-14 0 -23 9t-9 23v960q0 14 9 23t23 9h192q14 0 23 -9t9 -23zM1792 1376v-1472q0 -14 -9 -23t-23 -9h-192q-14 0 -23 9t-9 23v1472q0 14 9 23t23 9h192q14 0 23 -9t9 -23z" />
<glyph unicode="&#xf013;" d="M1024 640q0 106 -75 181t-181 75t-181 -75t-75 -181t75 -181t181 -75t181 75t75 181zM1536 749v-222q0 -120C673FEA95" />
<glyph unicode="&#xf014;" horiz-adv-x="1408" d="M512 800v-576q0 -14 -9 -23t-23 -9h-64q-14 0 -23 9t-9 23v576q0 14 9 23t23 9h64q14 0 23 -9t9 -23zM768 800v-576q0 -14 -9 -23t-23 -9h-64q-14 0 -23 9t-9 23v576q0 14 9 23t23 9h64q14 0 23 -9t9 -23zM1024 800v-576q0 -14 -9 -23t-23 -9h-64q-14 0 -23 9t-9 23v576 q0 14 9 23t23 9h64q14 0 23 -9t9 -23zM1152 76v948h-896v-948q0 -22 7 -40.5t14.5 -27t10.5 -8.5h832q3 0 10.5 8.5t14.5 27t7 40.5zM480 1152h448l-48 117q-7 9 -17 11h-317q-10 -2 -17 -11zM1408 1120v-64q0 -14 -9 -23t-23 -9h-96v-948q0 -83 -47 -143.5t-113 -60.5h-832 q-66 0 -113 58.5t-47 141.5v952h-96q-14 0 -23 9t-9 23v64q0 14 9 23t23 9h309l70 167q15 37 54 63t79 26h320q40 0 79 -26t54 -63l70 -167h309q14 0 23 -9t9 -23z" />
<glyph unicode="&#xf015;" horiz-adv-x="1664" d="M1408 544v-480q0 -26 -19 -45t-45 -19h-384v384h-256v-384h-384q-26 0 -45 19t-19 45v480q0 1 0.5 3t0.5 30CE342EA77" />
<glyph unicode="&#xf016;" horiz-adv-x="1280" d="M128 0h1024v768h-416q-40 0 -68 28t-28 68v416h-512v-1280zM768 896h299l-299 299v-299zM1280 768v-800q0 -40 -28 -68t-68 -28h-1088q-40 0 -68 28t-28 68v1344q0 40 28 68t68 28h544q40 0 88 -20t76 -48l408 -408q28 -28 48 -76t20 -88z" />
<glyph unicode="&#xf017;" d="M768 1408q209 0 385.5 -103t279.5 -279.5t103 -385.5t-103 -385.5t-279.5 -279.5t-385.5 -103t-385.5 103t-279.5 279.5t-103 385.5t103 385.5t279.5 279.5t385.5 103zM768 96q148 0 273 73t198 198t73 273t-73 273t-198 198t-273 73t-273 -73t-198 -198t-73 -273 t73 -273t198 -198t273 -73zM1024 640q26 0 45 -19t19 -45v-96q0 -26 -19 -45t-45 -19h-416q-26 0 -45 19t-19 45v480q0 26 19 45t45 19h96q26 0 45 -19t19 -45v-320h256z" />
<glyph unicode="&#xf018;" horiz-adv-x="1920" d="M1111 540v4l-24 320q-1 13 -11 22.5t-23 9.5h-186q-13 0 -23 -9.5t-11 -22.5l-24 -320v-4q-1 -12 8 -20t21 -8h244q12 0 21 8t8 20zM1870 73q0 -73 -46 -73h-704q13 0 22 9.5t8 22.5l-20 256q-1 13 -11 22.5t-23 9.5h-272q-13 0 -23 -9.5t-11 -22.5l-20 -256 q-1 -13 8 -22.5t22 -9.5h-704q-46 0 -46 73q0 54 26 116l417 1044q8 19 26 33t38 14h339q-13 0 -23 -9.5t-11 -22.5l-15 -192q-1 -14 8 -23t22 -9h166q13 0 22 9t8 23l-15 192q-1 13 -11 22.5t-23 9.5h339q20 0 38 -14t26 -33l417 -1044q26 -62 26 -116z" />
<glyph unicode="&#xf019;" horiz-adv-x="1664" d="M1280 192q0 26 -19 45t-45 19t-45 -19t-19 -45t19 -45t45 -19t45 19t19 45zM1536 192q0 26 -19 45t-45 19t-45 -19t-19 -45t19 -45t45 -19t45 19t19 45zM1664 416v-320q0 -40 -28 -68t-68 -28h-1472q-40 0 -68 28t-28 68v320q0 40 28 68t68 28h465l135 -136 q58 -56 136 -56t136 56l136 136h464q40 0 68 -28t28 -68zM1339 985q17 -41 -14 -70l-448 -448q-18 -19 -45 -19t-45 19l-448 448q-31 29 -14 70q17 39 59 39h256v448q0 26 19 45t45 19h256q26 0 45 -19t19 -45v-448h256q42 0 59 -39z" />
<glyph unicode="&#xf01a;" d="M1120 608q0 -12 -10 -24l-319 -319q-11 -9 -23 -9t-23 9l-320 320q-15 16 -7 35q8 20 30 20h192v352q0 14 0CE8268A7D" />
<glyph unicode="&#xf01b;" d="M1118 660q-8 -20 -30 -20h-192v-352q0 -14 -9 -23t-23 -9h-192q-14 0 -23 9t-9 23v352h-192q-14 0 -23 9t-02BC473ABA" />
<glyph unicode="&#xf01c;" d="M1023 576h316q-1 3 -2.5 8t-2.5 8l-212 496h-708l-212 -496q-1 -2 -2.5 -8t-2.5 -8h316l95 -192h320zM1536 546v-482q0 -26 -19 -45t-45 -19h-1408q-26 0 -45 19t-19 45v482q0 62 25 123l238 552q10 25 36.5 42t52.5 17h832q26 0 52.5 -17t36.5 -42l238 -552 q25 -61 25 -123z" />
<glyph unicode="&#xf01d;" d="M1184 640q0 -37 -32 -55l-544 -320q-15 -9 -32 -9q-16 0 -32 8q-32 19 -32 56v640q0 37 32 56q33 18 64 -1068FC70A9C" />
<glyph unicode="&#xf01e;" d="M1536 1280v-448q0 -26 -19 -45t-45 -19h-448q-42 0 -59 40q-17 39 14 69l138 138q-148 137 -349 137q-104 0 -198.5 -40.5t-163.5 -109.5t-109.5 -163.5t-40.5 -198.5t40.5 -198.5t109.5 -163.5t163.5 -109.5t198.5 -40.5q119 0 225 52t179 147q7 10 23 12q14 0 25 -9 l137 -138q9 -8 9.5 -20.5t-7.5 -22.5q-109 -132 -264 -204.5t-327 -72.5q-156 0 -298 61t-245 164t-164 245t-61 298t61 298t164 245t245 164t298 61q147 0 284.5 -55.5t244.5 -156.5l130 129q29 31 70 14q39 -17 39 -59z" />
<glyph unicode="&#xf021;" d="M1511 480q0 -5 -1 -7q-64 -268 -268 -434.5t-478 -166.5q-146 0 -282.5 55t-243.5 157l-129 -129q-19 -19 -45 -19t-45 19t-19 45v448q0 26 19 45t45 19h448q26 0 45 -19t19 -45t-19 -45l-137 -137q71 -66 161 -102t187 -36q134 0 250 65t186 179q11 17 53 117 q8 23 30 23h192q13 0 22.5 -9.5t9.5 -22.5zM1536 1280v-448q0 -26 -19 -45t-45 -19h-448q-26 0 -45 19t-19 45t19 45l138 138q-148 137 -349 137q-134 0 -250 -65t-186 -179q-11 -17 -53 -117q-8 -23 -30 -23h-199q-13 0 -22.5 9.5t-9.5 22.5v7q65 268 270 434.5t480 166.5 q146 0 284 -55.5t245 -156.5l130 129q19 19 45 19t45 -19t19 -45z" />
<glyph unicode="&#xf022;" horiz-adv-x="1792" d="M384 352v-64q0 -13 -9.5 -22.5t-22.5 -9.5h-64q-13 0 -22.5 9.5t-9.5 22.5v64q0 13 9.5 22.5t22.5 9.5h64q13 0 22.5 -9.5t9.5 -22.5zM384 608v-64q0 -13 -9.5 -22.5t-22.5 -9.5h-64q-13 0 -22.5 9.5t-9.5 22.5v64q0 13 9.5 22.5t22.5 9.5h64q13 0 22.5 -9.5t9.5 -22.5z M384 864v-64q0 -13 -9.5 -22.5t-22.5 -9.5h-64q-13 0 -22.5 9.5t-9.5 22.5v64q0 13 9.5 22.5t22.5 9.5h64q13 0 22.5 -9.5t9.5 -22.5zM1536 352v-64q0 -13 -9.5 -22.5t-22.5 -9.5h-960q-13 0 -22.5 9.5t-9.5 22.5v64q0 13 9.5 22.5t22.5 9.5h960q13 0 22.5 -9.5t9.5 -22.5z M1536 608v-64q0 -13 -9.5 -22.5t-22.5 -9.5h-960q-13 0 -22.5 9.5t-9.5 22.5v64q0 13 9.5 22.5t22.5 9.5h960q13 0 22.5 -9.5t9.5 -22.5zM1536 864v-64q0 -13 -9.5 -22.5t-22.5 -9.5h-960q-13 0 -22.5 9.5t-9.5 22.5v64q0 13 9.5 22.5t22.5 9.5h960q13 0 22.5 -9.5 t9.5 -22.5zM1664 160v832q0 13 -9.5 22.5t-22.5 9.5h-1472q-13 0 -22.5 -9.5t-9.5 -22.5v-832q0 -13 9.5 -22.5t22.5 -9.5h1472q13 0 22.5 9.5t9.5 22.5zM1792 1248v-1088q0 -66 -47 -113t-113 -47h-1472q-66 0 -113 47t-47 113v1088q0 66 47 113t113 47h1472q66 0 113 -47 t47 -113z" />
<glyph unicode="&#xf023;" horiz-adv-x="1152" d="M704 512q0 53 -37.5 90.5t-90.5 37.5t-90.5 -37.5t-37.5 -90.5q0 -37 19 -67t51 -47l-69 -229q-5 -15 5 -28t26 -13h192q16 0 26 13t5 28l-69 229q32 17 51 47t19 67zM320 768h512v192q0 106 -75 181t-181 75t-181 -75t-75 -181v-192zM1152 672v-576q0 -40 -28 -68 t-68 -28h-960q-40 0 -68 28t-28 68v576q0 40 28 68t68 28h32v192q0 184 132 316t316 132t316 -132t132 -316v-192h32q40 0 68 -28t28 -68z" />
<glyph unicode="&#xf024;" horiz-adv-x="1792" d="M320 1280q0 -72 -64 -110v-1266q0 -13 -9.5 -22.5t-22.5 -9.5h-64q-13 0 -22.5 9.5t-9.5 22.5v1266q-64 38 -64 110q0 53 37.5 90.5t90.5 37.5t90.5 -37.5t37.5 -90.5zM1792 1216v-763q0 -25 -12.5 -38.5t-39.5 -27.5q-215 -116 -369 -116q-61 0 -123.5 22t-108.5 48 t-115.5 48t-142.5 22q-192 0 -464 -146q-17 -9 -33 -9q-26 0 -45 19t-19 45v742q0 32 31 55q21 14 79 43q236 120 421 120q107 0 200 -29t219 -88q38 -19 88 -19q54 0 117.5 21t110 47t88 47t54.5 21q26 0 45 -19t19 -45z" />
<glyph unicode="&#xf025;" horiz-adv-x="1664" d="M1664 650q0 -166 -60 -314l-20 -49l-185 -33q-22 -83 -90.5 -136.5t-156.5 -53.5v-32q0 -14 -9 -23t-23 -9h-64q-14 0 -23 9t-9 23v576q0 14 9 23t23 9h64q14 0 23 -9t9 -23v-32q71 0 130 -35.5t93 -95.5l68 12q29 95 29 193q0 148 -88 279t-236.5 209t-315.5 78 t-315.5 -78t-236.5 -209t-88 -279q0 -98 29 -193l68 -12q34 60 93 95.5t130 35.5v32q0 14 9 23t23 9h64q14 0 23 -9t9 -23v-576q0 -14 -9 -23t-23 -9h-64q-14 0 -23 9t-9 23v32q-88 0 -156.5 53.5t-90.5 136.5l-185 33l-20 49q-60 148 -60 314q0 151 67 291t179 242.5 t266 163.5t320 61t320 -61t266 -163.5t179 -242.5t67 -291z" />
<glyph unicode="&#xf026;" horiz-adv-x="768" d="M768 1184v-1088q0 -26 -19 -45t-45 -19t-45 19l-333 333h-262q-26 0 -45 19t-19 45v384q0 26 19 45t45 19h262l333 333q19 19 45 19t45 -19t19 -45z" />
<glyph unicode="&#xf027;" horiz-adv-x="1152" d="M768 1184v-1088q0 -26 -19 -45t-45 -19t-45 19l-333 333h-262q-26 0 -45 19t-19 45v384q0 26 19 45t45 19h262l333 333q19 19 45 19t45 -19t19 -45zM1152 640q0 -76 -42.5 -141.5t-112.5 -93.5q-10 -5 -25 -5q-26 0 -45 18.5t-19 45.5q0 21 12 35.5t29 25t34 23t29 35.5 t12 57t-12 57t-29 35.5t-34 23t-29 25t-12 35.5q0 27 19 45.5t45 18.5q15 0 25 -5q70 -27 112.5 -93t42.5 -142z" />
<glyph unicode="&#xf028;" horiz-adv-x="1664" d="M768 1184v-1088q0 -26 -19 -45t-45 -19t-45 19l-333 333h-262q-26 0 -45 19t-19 45v384q0 26 19 45t45 19h089E273AEF" />
<glyph unicode="&#xf029;" horiz-adv-x="1408" d="M384 384v-128h-128v128h128zM384 1152v-128h-128v128h128zM1152 1152v-128h-128v128h128zM128 129h384v383h-384v-383zM128 896h384v384h-384v-384zM896 896h384v384h-384v-384zM640 640v-640h-640v640h640zM1152 128v-128h-128v128h128zM1408 128v-128h-128v128h128z M1408 640v-384h-384v128h-128v-384h-128v640h384v-128h128v128h128zM640 1408v-640h-640v640h640zM1408 1408v-640h-640v640h640z" />
<glyph unicode="&#xf02a;" horiz-adv-x="1792" d="M63 0h-63v1408h63v-1408zM126 1h-32v1407h32v-1407zM220 1h-31v1407h31v-1407zM377 1h-31v1407h31v-1407zM534 1h-62v1407h62v-1407zM660 1h-31v1407h31v-1407zM723 1h-31v1407h31v-1407zM786 1h-31v1407h31v-1407zM943 1h-63v1407h63v-1407zM1100 1h-63v1407h63v-1407z M1226 1h-63v1407h63v-1407zM1352 1h-63v1407h63v-1407zM1446 1h-63v1407h63v-1407zM1635 1h-94v1407h94v-1407zM1698 1h-32v1407h32v-1407zM1792 0h-63v1408h63v-1408z" />
<glyph unicode="&#xf02b;" d="M448 1088q0 53 -37.5 90.5t-90.5 37.5t-90.5 -37.5t-37.5 -90.5t37.5 -90.5t90.5 -37.5t90.5 37.5t37.5 90.5zM1515 512q0 -53 -37 -90l-491 -492q-39 -37 -91 -37q-53 0 -90 37l-715 716q-38 37 -64.5 101t-26.5 117v416q0 52 38 90t90 38h416q53 0 117 -26.5t102 -64.5 l715 -714q37 -39 37 -91z" />
<glyph unicode="&#xf02c;" horiz-adv-x="1920" d="M448 1088q0 53 -37.5 90.5t-90.5 37.5t-90.5 -37.5t-37.5 -90.5t37.5 -90.5t90.5 -37.5t90.5 37.5t37.5 90.5zM1515 512q0 -53 -37 -90l-491 -492q-39 -37 -91 -37q-53 0 -90 37l-715 716q-38 37 -64.5 101t-26.5 117v416q0 52 38 90t90 38h416q53 0 117 -26.5t102 -64.5 l715 -714q37 -39 37 -91zM1899 512q0 -53 -37 -90l-491 -492q-39 -37 -91 -37q-36 0 -59 14t-53 45l470 470q37 37 37 90q0 52 -37 91l-715 714q-38 38 -102 64.5t-117 26.5h224q53 0 117 -26.5t102 -64.5l715 -714q37 -39 37 -91z" />
<glyph unicode="&#xf02d;" horiz-adv-x="1664" d="M1639 1058q40 -57 18 -129l-275 -906q-19 -64 -76.5 -107.5t-122.5 -43.5h-923q-77 0 -148.5 53.5t-99.5 102AB1FBA17" />
<glyph unicode="&#xf02e;" horiz-adv-x="1280" d="M1164 1408q23 0 44 -9q33 -13 52.5 -41t19.5 -62v-1289q0 -34 -19.5 -62t-52.5 -41q-19 -8 -44 -8q-48 0 -83 32l-441 424l-441 -424q-36 -33 -83 -33q-23 0 -44 9q-33 13 -52.5 41t-19.5 62v1289q0 34 19.5 62t52.5 41q21 9 44 9h1048z" />
<glyph unicode="&#xf02f;" horiz-adv-x="1664" d="M384 0h896v256h-896v-256zM384 640h896v384h-160q-40 0 -68 28t-28 68v160h-640v-640zM1536 576q0 26 -19 03B09FCAD2" />
<glyph unicode="&#xf030;" horiz-adv-x="1920" d="M960 864q119 0 203.5 -84.5t84.5 -203.5t-84.5 -203.5t-203.5 -84.5t-203.5 84.5t-84.5 203.5t84.5 203.5t0B77BD8A29" />
<glyph unicode="&#xf031;" horiz-adv-x="1664" d="M725 977l-170 -450q73 -1 153.5 -2t119 -1.5t52.5 -0.5l29 2q-32 95 -92 241q-53 132 -92 211zM21 -128h-21l2 79q22 7 80 18q89 16 110 31q20 16 48 68l237 616l280 724h75h53l11 -21l205 -480q103 -242 124 -297q39 -102 96 -235q26 -58 65 -164q24 -67 65 -149 q22 -49 35 -57q22 -19 69 -23q47 -6 103 -27q6 -39 6 -57q0 -14 -1 -26q-80 0 -192 8q-93 8 -189 8q-79 0 -135 -2l-200 -11l-58 -2q0 45 4 78l131 28q56 13 68 23q12 12 12 27t-6 32l-47 114l-92 228l-450 2q-29 -65 -104 -274q-23 -64 -23 -84q0 -31 17 -43 q26 -21 103 -32q3 0 13.5 -2t30 -5t40.5 -6q1 -28 1 -58q0 -17 -2 -27q-66 0 -349 20l-48 -8q-81 -14 -167 -14z" />
<glyph unicode="&#xf032;" horiz-adv-x="1408" d="M555 15q76 -32 140 -32q131 0 216 41t122 113q38 70 38 181q0 114 -41 180q-58 94 -141 126q-80 32 -247 32q-74 0 -101 -10v-144l-1 -173l3 -270q0 -15 12 -44zM541 761q43 -7 109 -7q175 0 264 65t89 224q0 112 -85 187q-84 75 -255 75q-52 0 -130 -13q0 -44 2 -77 q7 -122 6 -279l-1 -98q0 -43 1 -77zM0 -128l2 94q45 9 68 12q77 12 123 31q17 27 21 51q9 66 9 194l-2 497q-5 256 -9 404q-1 87 -11 109q-1 4 -12 12q-18 12 -69 15q-30 2 -114 13l-4 83l260 6l380 13l45 1q5 0 14 0.5t14 0.5q1 0 21.5 -0.5t40.5 -0.5h74q88 0 191 -27 q43 -13 96 -39q57 -29 102 -76q44 -47 65 -104t21 -122q0 -70 -32 -128t-95 -105q-26 -20 -150 -77q177 -41 267 -146q92 -106 92 -236q0 -76 -29 -161q-21 -62 -71 -117q-66 -72 -140 -108q-73 -36 -203 -60q-82 -15 -198 -11l-197 4q-84 2 -298 -11q-33 -3 -272 -11z" />
<glyph unicode="&#xf033;" horiz-adv-x="1024" d="M0 -126l17 85q4 1 77 20q76 19 116 39q29 37 41 101l27 139l56 268l12 64q8 44 17 84.5t16 67t12.5 46.5t9 30.5t3.5 11.5l29 157l16 63l22 135l8 50v38q-41 22 -144 28q-28 2 -38 4l19 103l317 -14q39 -2 73 -2q66 0 214 9q33 2 68 4.5t36 2.5q-2 -19 -6 -38 q-7 -29 -13 -51q-55 -19 -109 -31q-64 -16 -101 -31q-12 -31 -24 -88q-9 -44 -13 -82q-44 -199 -66 -306l-61 -311l-38 -158l-43 -235l-12 -45q-2 -7 1 -27q64 -15 119 -21q36 -5 66 -10q-1 -29 -7 -58q-7 -31 -9 -41q-18 0 -23 -1q-24 -2 -42 -2q-9 0 -28 3q-19 4 -145 17 l-198 2q-41 1 -174 -11q-74 -7 -98 -9z" />
<glyph unicode="&#xf034;" horiz-adv-x="1792" d="M81 1407l54 -27q20 -5 211 -5h130l19 3l115 1l215 -1h293l34 -2q14 -1 28 7t21 16l7 8l42 1q15 0 28 -1v-104.5t1 -131.5l1 -100l-1 -58q0 -32 -4 -51q-39 -15 -68 -18q-25 43 -54 128q-8 24 -15.5 62.5t-11.5 65.5t-6 29q-13 15 -27 19q-7 2 -42.5 2t-103.5 -1t-111 -1 q-34 0 -67 -5q-10 -97 -8 -136l1 -152v-332l3 -359l-1 -147q-1 -46 11 -85q49 -25 89 -32q2 0 18 -5t44 -13t43 -12q30 -8 50 -18q5 -45 5 -50q0 -10 -3 -29q-14 -1 -34 -1q-110 0 -187 10q-72 8 -238 8q-88 0 -233 -14q-48 -4 -70 -4q-2 22 -2 26l-1 26v9q21 33 79 49 q139 38 159 50q9 21 12 56q8 192 6 433l-5 428q-1 62 -0.5 118.5t0.5 102.5t-2 57t-6 15q-6 5 -14 6q-38 6 -148 6q-43 0 -100 -13.5t-73 -24.5q-13 -9 -22 -33t-22 -75t-24 -84q-6 -19 -19.5 -32t-20.5 -13q-44 27 -56 44v297v86zM1744 128q33 0 42 -18.5t-11 -44.5 l-126 -162q-20 -26 -49 -26t-49 26l-126 162q-20 26 -11 44.5t42 18.5h80v1024h-80q-33 0 -42 18.5t11 44.5l126 162q20 26 49 26t49 -26l126 -162q20 -26 11 -44.5t-42 -18.5h-80v-1024h80z" />
<glyph unicode="&#xf035;" d="M81 1407l54 -27q20 -5 211 -5h130l19 3l115 1l446 -1h318l34 -2q14 -1 28 7t21 16l7 8l42 1q15 0 28 -1v-104.5t1 -131.5l1 -100l-1 -58q0 -32 -4 -51q-39 -15 -68 -18q-25 43 -54 128q-8 24 -15.5 62.5t-11.5 65.5t-6 29q-13 15 -27 19q-7 2 -58.5 2t-138.5 -1t-128 -1 q-94 0 -127 -5q-10 -97 -8 -136l1 -152v52l3 -359l-1 -147q-1 -46 11 -85q49 -25 89 -32q2 0 18 -5t44 -13t43 -12q30 -8 50 -18q5 -45 5 -50q0 -10 -3 -29q-14 -1 -34 -1q-110 0 -187 10q-72 8 -238 8q-82 0 -233 -13q-45 -5 -70 -5q-2 22 -2 26l-1 26v9q21 33 79 49 q139 38 159 50q9 21 12 56q6 137 6 433l-5 44q0 265 -2 278q-2 11 -6 15q-6 5 -14 6q-38 6 -148 6q-50 0 -168.5 -14t-132.5 -24q-13 -9 -22 -33t-22 -75t-24 -84q-6 -19 -19.5 -32t-20.5 -13q-44 27 -56 44v297v86zM1505 113q26 -20 26 -49t-26 -49l-162 -126 q-26 -20 -44.5 -11t-18.5 42v80h-1024v-80q0 -33 -18.5 -42t-44.5 11l-162 126q-26 20 -26 49t26 49l162 126q26 20 44.5 11t18.5 -42v-80h1024v80q0 33 18.5 42t44.5 -11z" />
<glyph unicode="&#xf036;" horiz-adv-x="1792" d="M1792 192v-128q0 -26 -19 -45t-45 -19h-1664q-26 0 -45 19t-19 45v128q0 26 19 45t45 19h1664q26 0 45 -19t19 -45zM1408 576v-128q0 -26 -19 -45t-45 -19h-1280q-26 0 -45 19t-19 45v128q0 26 19 45t45 19h1280q26 0 45 -19t19 -45zM1664 960v-128q0 -26 -19 -45 t-45 -19h-1536q-26 0 -45 19t-19 45v128q0 26 19 45t45 19h1536q26 0 45 -19t19 -45zM1280 1344v-128q0 -26 -19 -45t-45 -19h-1152q-26 0 -45 19t-19 45v128q0 26 19 45t45 19h1152q26 0 45 -19t19 -45z" />
<glyph unicode="&#xf037;" horiz-adv-x="1792" d="M1792 192v-128q0 -26 -19 -45t-45 -19h-1664q-26 0 -45 19t-19 45v128q0 26 19 45t45 19h1664q26 0 45 -19t19 -45zM1408 576v-128q0 -26 -19 -45t-45 -19h-896q-26 0 -45 19t-19 45v128q0 26 19 45t45 19h896q26 0 45 -19t19 -45zM1664 960v-128q0 -26 -19 -45t-45 -19 h-1408q-26 0 -45 19t-19 45v128q0 26 19 45t45 19h1408q26 0 45 -19t19 -45zM1280 1344v-128q0 -26 -19 -45t-45 -19h-640q-26 0 -45 19t-19 45v128q0 26 19 45t45 19h640q26 0 45 -19t19 -45z" />
<glyph unicode="&#xf038;" horiz-adv-x="1792" d="M1792 192v-128q0 -26 -19 -45t-45 -19h-1664q-26 0 -45 19t-19 45v128q0 26 19 45t45 19h1664q26 0 45 -19t19 -45zM1792 576v-128q0 -26 -19 -45t-45 -19h-1280q-26 0 -45 19t-19 45v128q0 26 19 45t45 19h1280q26 0 45 -19t19 -45zM1792 960v-128q0 -26 -19 -45 t-45 -19h-1536q-26 0 -45 19t-19 45v128q0 26 19 45t45 19h1536q26 0 45 -19t19 -45zM1792 1344v-128q0 -26 -19 -45t-45 -19h-1152q-26 0 -45 19t-19 45v128q0 26 19 45t45 19h1152q26 0 45 -19t19 -45z" />
<glyph unicode="&#xf039;" horiz-adv-x="1792" d="M1792 192v-128q0 -26 -19 -45t-45 -19h-1664q-26 0 -45 19t-19 45v128q0 26 19 45t45 19h1664q26 0 45 -19t19 -45zM1792 576v-128q0 -26 -19 -45t-45 -19h-1664q-26 0 -45 19t-19 45v128q0 26 19 45t45 19h1664q26 0 45 -19t19 -45zM1792 960v-128q0 -26 -19 -45 t-45 -19h-1664q-26 0 -45 19t-19 45v128q0 26 19 45t45 19h1664q26 0 45 -19t19 -45zM1792 1344v-128q0 -26 -19 -45t-45 -19h-1664q-26 0 -45 19t-19 45v128q0 26 19 45t45 19h1664q26 0 45 -19t19 -45z" />
<glyph unicode="&#xf03a;" horiz-adv-x="1792" d="M256 224v-192q0 -13 -9.5 -22.5t-22.5 -9.5h-192q-13 0 -22.5 9.5t-9.5 22.5v192q0 13 9.5 22.5t22.5 9.5h0D09CE7A1D" />
<glyph unicode="&#xf03b;" horiz-adv-x="1792" d="M384 992v-576q0 -13 -9.5 -22.5t-22.5 -9.5q-14 0 -23 9l-288 288q-9 9 -9 23t9 23l288 288q9 9 23 9q13 00C66D0CA7D" />
<glyph unicode="&#xf03c;" horiz-adv-x="1792" d="M352 704q0 -14 -9 -23l-288 -288q-9 -9 -23 -9q-13 0 -22.5 9.5t-9.5 22.5v576q0 13 9.5 22.5t22.5 9.5q1409E8965A1C" />
<glyph unicode="&#xf03d;" horiz-adv-x="1792" d="M1792 1184v-1088q0 -42 -39 -59q-13 -5 -25 -5q-27 0 -45 19l-403 403v-166q0 -119 -84.5 -203.5t-203.5 -84.5h-704q-119 0 -203.5 84.5t-84.5 203.5v704q0 119 84.5 203.5t203.5 84.5h704q119 0 203.5 -84.5t84.5 -203.5v-165l403 402q18 19 45 19q12 0 25 -5 q39 -17 39 -59z" />
<glyph unicode="&#xf03e;" horiz-adv-x="1920" d="M640 960q0 -80 -56 -136t-136 -56t-136 56t-56 136t56 136t136 56t136 -56t56 -136zM1664 576v-448h-1408v192l320 320l160 -160l512 512zM1760 1280h-1600q-13 0 -22.5 -9.5t-9.5 -22.5v-1216q0 -13 9.5 -22.5t22.5 -9.5h1600q13 0 22.5 9.5t9.5 22.5v1216 q0 13 -9.5 22.5t-22.5 9.5zM1920 1248v-1216q0 -66 -47 -113t-113 -47h-1600q-66 0 -113 47t-47 113v1216q0 66 47 113t113 47h1600q66 0 113 -47t47 -113z" />
<glyph unicode="&#xf040;" d="M363 0l91 91l-235 235l-91 -91v-107h128v-128h107zM886 928q0 22 -22 22q-10 0 -17 -7l-542 -542q-7 -7 -7 -17q0 -22 22 -22q10 0 17 7l542 542q7 7 7 17zM832 1120l416 -416l-832 -832h-416v416zM1515 1024q0 -53 -37 -90l-166 -166l-416 416l166 165q36 38 90 38 q53 0 91 -38l235 -234q37 -39 37 -91z" />
<glyph unicode="&#xf041;" horiz-adv-x="1024" d="M768 896q0 106 -75 181t-181 75t-181 -75t-75 -181t75 -181t181 -75t181 75t75 181zM1024 896q0 -109 -33 -179l-364 -774q-16 -33 -47.5 -52t-67.5 -19t-67.5 19t-46.5 52l-365 774q-33 70 -33 179q0 212 150 362t362 150t362 -150t150 -362z" />
<glyph unicode="&#xf042;" d="M768 96v1088q-148 0 -273 -73t-198 -198t-73 -273t73 -273t198 -198t273 -73zM1536 640q0 -209 -103 -385.03ECFC9A16" />
<glyph unicode="&#xf043;" horiz-adv-x="1024" d="M512 384q0 36 -20 69q-1 1 -15.5 22.5t-25.5 38t-25 44t-21 50.5q-4 16 -21 16t-21 -16q-7 -23 -21 -50.5t-25 -44t-25.5 -38t-15.5 -22.5q-20 -33 -20 -69q0 -53 37.5 -90.5t90.5 -37.5t90.5 37.5t37.5 90.5zM1024 512q0 -212 -150 -362t-362 -150t-362 150t-150 362 q0 145 81 275q6 9 62.5 90.5t101 151t99.5 178t83 201.5q9 30 34 47t51 17t51.5 -17t33.5 -47q28 -93 83 -201.5t99.5 -178t101 -151t62.5 -90.5q81 -127 81 -275z" />
<glyph unicode="&#xf044;" horiz-adv-x="1792" d="M888 352l116 116l-152 152l-116 -116v-56h96v-96h56zM1328 1072q-16 16 -33 -1l-350 -350q-17 -17 -1 -33t33 1l350 350q17 17 1 33zM1408 478v-190q0 -119 -84.5 -203.5t-203.5 -84.5h-832q-119 0 -203.5 84.5t-84.5 203.5v832q0 119 84.5 203.5t203.5 84.5h832 q63 0 117 -25q15 -7 18 -23q3 -17 -9 -29l-49 -49q-14 -14 -32 -8q-23 6 -45 6h-832q-66 0 -113 -47t-47 -113v-832q0 -66 47 -113t113 -47h832q66 0 113 47t47 113v126q0 13 9 22l64 64q15 15 35 7t20 -29zM1312 1216l288 -288l-672 -672h-288v288zM1756 1084l-92 -92 l-288 288l92 92q28 28 68 28t68 -28l152 -152q28 -28 28 -68t-28 -68z" />
<glyph unicode="&#xf045;" horiz-adv-x="1664" d="M1408 547v-259q0 -119 -84.5 -203.5t-203.5 -84.5h-832q-119 0 -203.5 84.5t-84.5 203.5v832q0 119 84.5 203.5t203.5 84.5h255v0q13 0 22.5 -9.5t9.5 -22.5q0 -27 -26 -32q-77 -26 -133 -60q-10 -4 -16 -4h-112q-66 0 -113 -47t-47 -113v-832q0 -66 47 -113t113 -47h832 q66 0 113 47t47 113v214q0 19 18 29q28 13 54 37q16 16 35 8q21 -9 21 -29zM1645 1043l-384 -384q-18 -19 -45 -19q-12 0 -25 5q-39 17 -39 59v192h-160q-323 0 -438 -131q-119 -137 -74 -473q3 -23 -20 -34q-8 -2 -12 -2q-16 0 -26 13q-10 14 -21 31t-39.5 68.5t-49.5 99.5 t-38.5 114t-17.5 122q0 49 3.5 91t14 90t28 88t47 81.5t68.5 74t94.5 61.5t124.5 48.5t159.5 30.5t196.5 11h160v192q0 42 39 59q13 5 25 5q26 0 45 -19l384 -384q19 -19 19 -45t-19 -45z" />
<glyph unicode="&#xf046;" horiz-adv-x="1664" d="M1408 606v-318q0 -119 -84.5 -203.5t-203.5 -84.5h-832q-119 0 -203.5 84.5t-84.5 203.5v832q0 119 84.5 203.5t203.5 84.5h832q63 0 117 -25q15 -7 18 -23q3 -17 -9 -29l-49 -49q-10 -10 -23 -10q-3 0 -9 2q-23 6 -45 6h-832q-66 0 -113 -47t-47 -113v-832 q0 -66 47 -113t113 -47h832q66 0 113 47t47 113v254q0 13 9 22l64 64q10 10 23 10q6 0 12 -3q20 -8 20 -29zM1639 1095l-814 -814q-24 -24 -57 -24t-57 24l-430 430q-24 24 -24 57t24 57l110 110q24 24 57 24t57 -24l263 -263l647 647q24 24 57 24t57 -24l110 -110 q24 -24 24 -57t-24 -57z" />
<glyph unicode="&#xf047;" horiz-adv-x="1792" d="M1792 640q0 -26 -19 -45l-256 -256q-19 -19 -45 -19t-45 19t-19 45v128h-384v-384h128q26 0 45 -19t19 -45t-19 -45l-256 -256q-19 -19 -45 -19t-45 19l-256 256q-19 19 -19 45t19 45t45 19h128v384h-384v-128q0 -26 -19 -45t-45 -19t-45 19l-256 256q-19 19 -19 45 t19 45l256 256q19 19 45 19t45 -19t19 -45v-128h384v384h-128q-26 0 -45 19t-19 45t19 45l256 256q19 19 45 19t45 -19l256 -256q19 -19 19 -45t-19 -45t-45 -19h-128v-384h384v128q0 26 19 45t45 19t45 -19l256 -256q19 -19 19 -45z" />
<glyph unicode="&#xf048;" horiz-adv-x="1024" d="M979 1395q19 19 32 13t13 -32v-1472q0 -26 -13 -32t-32 13l-710 710q-9 9 -13 19v-678q0 -26 -19 -45t-45 -19h-128q-26 0 -45 19t-19 45v1408q0 26 19 45t45 19h128q26 0 45 -19t19 -45v-678q4 11 13 19z" />
<glyph unicode="&#xf049;" horiz-adv-x="1792" d="M1747 1395q19 19 32 13t13 -32v-1472q0 -26 -13 -32t-32 13l-710 710q-9 9 -13 19v-710q0 -26 -13 -32t-32 13l-710 710q-9 9 -13 19v-678q0 -26 -19 -45t-45 -19h-128q-26 0 -45 19t-19 45v1408q0 26 19 45t45 19h128q26 0 45 -19t19 -45v-678q4 11 13 19l710 710 q19 19 32 13t13 -32v-710q4 11 13 19z" />
<glyph unicode="&#xf04a;" horiz-adv-x="1664" d="M1619 1395q19 19 32 13t13 -32v-1472q0 -26 -13 -32t-32 13l-710 710q-8 9 -13 19v-710q0 -26 -13 -32t-32 13l-710 710q-19 19 -19 45t19 45l710 710q19 19 32 13t13 -32v-710q5 11 13 19z" />
<glyph unicode="&#xf04b;" horiz-adv-x="1408" d="M1384 609l-1328 -738q-23 -13 -39.5 -3t-16.5 36v1472q0 26 16.5 36t39.5 -3l1328 -738q23 -13 23 -31t-23 -31z" />
<glyph unicode="&#xf04c;" d="M1536 1344v-1408q0 -26 -19 -45t-45 -19h-512q-26 0 -45 19t-19 45v1408q0 26 19 45t45 19h512q26 0 45 -19t19 -45zM640 1344v-1408q0 -26 -19 -45t-45 -19h-512q-26 0 -45 19t-19 45v1408q0 26 19 45t45 19h512q26 0 45 -19t19 -45z" />
<glyph unicode="&#xf04d;" d="M1536 1344v-1408q0 -26 -19 -45t-45 -19h-1408q-26 0 -45 19t-19 45v1408q0 26 19 45t45 19h1408q26 0 45 -19t19 -45z" />
<glyph unicode="&#xf04e;" horiz-adv-x="1664" d="M45 -115q-19 -19 -32 -13t-13 32v1472q0 26 13 32t32 -13l710 -710q8 -8 13 -19v710q0 26 13 32t32 -13l710 -710q19 -19 19 -45t-19 -45l-710 -710q-19 -19 -32 -13t-13 32v710q-5 -10 -13 -19z" />
<glyph unicode="&#xf050;" horiz-adv-x="1792" d="M45 -115q-19 -19 -32 -13t-13 32v1472q0 26 13 32t32 -13l710 -710q8 -8 13 -19v710q0 26 13 32t32 -13l710 -710q8 -8 13 -19v678q0 26 19 45t45 19h128q26 0 45 -19t19 -45v-1408q0 -26 -19 -45t-45 -19h-128q-26 0 -45 19t-19 45v678q-5 -10 -13 -19l-710 -710 q-19 -19 -32 -13t-13 32v710q-5 -10 -13 -19z" />
<glyph unicode="&#xf051;" horiz-adv-x="1024" d="M45 -115q-19 -19 -32 -13t-13 32v1472q0 26 13 32t32 -13l710 -710q8 -8 13 -19v678q0 26 19 45t45 19h128q26 0 45 -19t19 -45v-1408q0 -26 -19 -45t-45 -19h-128q-26 0 -45 19t-19 45v678q-5 -10 -13 -19z" />
<glyph unicode="&#xf052;" horiz-adv-x="1538" d="M14 557l710 710q19 19 45 19t45 -19l710 -710q19 -19 13 -32t-32 -13h-1472q-26 0 -32 13t13 32zM1473 0h-1408q-26 0 -45 19t-19 45v256q0 26 19 45t45 19h1408q26 0 45 -19t19 -45v-256q0 -26 -19 -45t-45 -19z" />
<glyph unicode="&#xf053;" horiz-adv-x="1152" d="M742 -37l-652 651q-37 37 -37 90.5t37 90.5l652 651q37 37 90.5 37t90.5 -37l75 -75q37 -37 37 -90.5t-37 0606112A72" />
<glyph unicode="&#xf054;" horiz-adv-x="1152" d="M1099 704q0 -52 -37 -91l-652 -651q-37 -37 -90 -37t-90 37l-76 75q-37 39 -37 91q0 53 37 90l486 486l-486 485q-37 39 -37 91q0 53 37 90l76 75q36 38 90 38t90 -38l652 -651q37 -37 37 -90z" />
<glyph unicode="&#xf055;" d="M1216 576v128q0 26 -19 45t-45 19h-256v256q0 26 -19 45t-45 19h-128q-26 0 -45 -19t-19 -45v-256h-256q-20E28664A17" />
<glyph unicode="&#xf056;" d="M1216 576v128q0 26 -19 45t-45 19h-768q-26 0 -45 -19t-19 -45v-128q0 -26 19 -45t45 -19h768q26 0 45 19t0848F82A1E" />
<glyph unicode="&#xf057;" d="M1149 414q0 26 -19 45l-181 181l181 181q19 19 19 45q0 27 -19 46l-90 90q-19 19 -46 19q-26 0 -45 -19l-10DD4167A73" />
<glyph unicode="&#xf058;" d="M1284 802q0 28 -18 46l-91 90q-19 19 -45 19t-45 -19l-408 -407l-226 226q-19 19 -45 19t-45 -19l-91 -90q02DA31CAB2" />
<glyph unicode="&#xf059;" d="M896 160v192q0 14 -9 23t-23 9h-192q-14 0 -23 -9t-9 -23v-192q0 -14 9 -23t23 -9h192q14 0 23 9t9 23zM110EBFE6EAC7" />
<glyph unicode="&#xf05a;" d="M1024 160v160q0 14 -9 23t-23 9h-96v512q0 14 -9 23t-23 9h-320q-14 0 -23 -9t-9 -23v-160q0 -14 9 -23t2300F6F89AA0" />
<glyph unicode="&#xf05b;" d="M1197 512h-109q-26 0 -45 19t-19 45v128q0 26 19 45t45 19h109q-32 108 -112.5 188.5t-188.5 112.5v-109q0 -26 -19 -45t-45 -19h-128q-26 0 -45 19t-19 45v109q-108 -32 -188.5 -112.5t-112.5 -188.5h109q26 0 45 -19t19 -45v-128q0 -26 -19 -45t-45 -19h-109 q32 -108 112.5 -188.5t188.5 -112.5v109q0 26 19 45t45 19h128q26 0 45 -19t19 -45v-109q108 32 188.5 112.5t112.5 188.5zM1536 704v-128q0 -26 -19 -45t-45 -19h-143q-37 -161 -154.5 -278.5t-278.5 -154.5v-143q0 -26 -19 -45t-45 -19h-128q-26 0 -45 19t-19 45v143 q-161 37 -278.5 154.5t-154.5 278.5h-143q-26 0 -45 19t-19 45v128q0 26 19 45t45 19h143q37 161 154.5 278.5t278.5 154.5v143q0 26 19 45t45 19h128q26 0 45 -19t19 -45v-143q161 -37 278.5 -154.5t154.5 -278.5h143q26 0 45 -19t19 -45z" />
<glyph unicode="&#xf05c;" d="M1097 457l-146 -146q-10 -10 -23 -10t-23 10l-137 137l-137 -137q-10 -10 -23 -10t-23 10l-146 146q-10 100DAE197A4F" />
<glyph unicode="&#xf05d;" d="M1171 723l-422 -422q-19 -19 -45 -19t-45 19l-294 294q-19 19 -19 45t19 45l102 102q19 19 45 19t45 -19l1039FA73A83" />
<glyph unicode="&#xf05e;" d="M1312 643q0 161 -87 295l-754 -753q137 -89 297 -89q111 0 211.5 43.5t173.5 116.5t116 174.5t43 212.5zM3033E4CAA4B" />
<glyph unicode="&#xf060;" d="M1536 640v-128q0 -53 -32.5 -90.5t-84.5 -37.5h-704l293 -294q38 -36 38 -90t-38 -90l-75 -76q-37 -37 -9008AD2B1A63" />
<glyph unicode="&#xf061;" d="M1472 576q0 -54 -37 -91l-651 -651q-39 -37 -91 -37q-51 0 -90 37l-75 75q-38 38 -38 91t38 91l293 293h-704q-52 0 -84.5 37.5t-32.5 90.5v128q0 53 32.5 90.5t84.5 37.5h704l-293 294q-38 36 -38 90t38 90l75 75q38 38 90 38q53 0 91 -38l651 -651q37 -35 37 -90z" />
<glyph unicode="&#xf062;" horiz-adv-x="1664" d="M1611 565q0 -51 -37 -90l-75 -75q-38 -38 -91 -38q-54 0 -90 38l-294 293v-704q0 -52 -37.5 -84.5t-90.5 -32.5h-128q-53 0 -90.5 32.5t-37.5 84.5v704l-294 -293q-36 -38 -90 -38t-90 38l-75 75q-38 38 -38 90q0 53 38 91l651 651q35 37 90 37q54 0 91 -37l651 -651 q37 -39 37 -91z" />
<glyph unicode="&#xf063;" horiz-adv-x="1664" d="M1611 704q0 -53 -37 -90l-651 -652q-39 -37 -91 -37q-53 0 -90 37l-651 652q-38 36 -38 90q0 53 38 91l74 75q39 37 91 37q53 0 90 -37l294 -294v704q0 52 38 90t90 38h128q52 0 90 -38t38 -90v-704l294 294q37 37 90 37q52 0 91 -37l75 -75q37 -39 37 -91z" />
<glyph unicode="&#xf064;" horiz-adv-x="1792" d="M1792 896q0 -26 -19 -45l-512 -512q-19 -19 -45 -19t-45 19t-19 45v256h-224q-98 0 -175.5 -6t-154 -21.5t-133 -42.5t-105.5 -69.5t-80 -101t-48.5 -138.5t-17.5 -181q0 -55 5 -123q0 -6 2.5 -23.5t2.5 -26.5q0 -15 -8.5 -25t-23.5 -10q-16 0 -28 17q-7 9 -13 22 t-13.5 30t-10.5 24q-127 285 -127 451q0 199 53 333q162 403 875 403h224v256q0 26 19 45t45 19t45 -19l512 -512q19 -19 19 -45z" />
<glyph unicode="&#xf065;" d="M755 480q0 -13 -10 -23l-332 -332l144 -144q19 -19 19 -45t-19 -45t-45 -19h-448q-26 0 -45 19t-19 45v448q0 26 19 45t45 19t45 -19l144 -144l332 332q10 10 23 10t23 -10l114 -114q10 -10 10 -23zM1536 1344v-448q0 -26 -19 -45t-45 -19t-45 19l-144 144l-332 -332 q-10 -10 -23 -10t-23 10l-114 114q-10 10 -10 23t10 23l332 332l-144 144q-19 19 -19 45t19 45t45 19h448q26 0 45 -19t19 -45z" />
<glyph unicode="&#xf066;" d="M768 576v-448q0 -26 -19 -45t-45 -19t-45 19l-144 144l-332 -332q-10 -10 -23 -10t-23 10l-114 114q-10 10 -10 23t10 23l332 332l-144 144q-19 19 -19 45t19 45t45 19h448q26 0 45 -19t19 -45zM1523 1248q0 -13 -10 -23l-332 -332l144 -144q19 -19 19 -45t-19 -45 t-45 -19h-448q-26 0 -45 19t-19 45v448q0 26 19 45t45 19t45 -19l144 -144l332 332q10 10 23 10t23 -10l114 -114q10 -10 10 -23z" />
<glyph unicode="&#xf067;" horiz-adv-x="1408" d="M1408 800v-192q0 -40 -28 -68t-68 -28h-416v-416q0 -40 -28 -68t-68 -28h-192q-40 0 -68 28t-28 68v416h-416q-40 0 -68 28t-28 68v192q0 40 28 68t68 28h416v416q0 40 28 68t68 28h192q40 0 68 -28t28 -68v-416h416q40 0 68 -28t28 -68z" />
<glyph unicode="&#xf068;" horiz-adv-x="1408" d="M1408 800v-192q0 -40 -28 -68t-68 -28h-1216q-40 0 -68 28t-28 68v192q0 40 28 68t68 28h1216q40 0 68 -28t28 -68z" />
<glyph unicode="&#xf069;" horiz-adv-x="1664" d="M1482 486q46 -26 59.5 -77.5t-12.5 -97.5l-64 -110q-26 -46 -77.5 -59.5t-97.5 12.5l-266 153v-307q0 -52 -38 -90t-90 -38h-128q-52 0 -90 38t-38 90v307l-266 -153q-46 -26 -97.5 -12.5t-77.5 59.5l-64 110q-26 46 -12.5 97.5t59.5 77.5l266 154l-266 154 q-46 26 -59.5 77.5t12.5 97.5l64 110q26 46 77.5 59.5t97.5 -12.5l266 -153v307q0 52 38 90t90 38h128q52 0 90 -38t38 -90v-307l266 153q46 26 97.5 12.5t77.5 -59.5l64 -110q26 -46 12.5 -97.5t-59.5 -77.5l-266 -154z" />
<glyph unicode="&#xf06a;" d="M768 1408q209 0 385.5 -103t279.5 -279.5t103 -385.5t-103 -385.5t-279.5 -279.5t-385.5 -103t-385.5 103t0E3AA64A45" />
<glyph unicode="&#xf06b;" d="M928 180v56v468v192h-320v-192v-468v-56q0 -25 18 -38.5t46 -13.5h192q28 0 46 13.5t18 38.5zM472 1024h195l-126 161q-26 31 -69 31q-40 0 -68 -28t-28 -68t28 -68t68 -28zM1160 1120q0 40 -28 68t-68 28q-43 0 -69 -31l-125 -161h194q40 0 68 28t28 68zM1536 864v-320 q0 -14 -9 -23t-23 -9h-96v-416q0 -40 -28 -68t-68 -28h-1088q-40 0 -68 28t-28 68v416h-96q-14 0 -23 9t-9 23v320q0 14 9 23t23 9h440q-93 0 -158.5 65.5t-65.5 158.5t65.5 158.5t158.5 65.5q107 0 168 -77l128 -165l128 165q61 77 168 77q93 0 158.5 -65.5t65.5 -158.5 t-65.5 -158.5t-158.5 -65.5h440q14 0 23 -9t9 -23z" />
<glyph unicode="&#xf06c;" horiz-adv-x="1792" d="M1280 832q0 26 -19 45t-45 19q-172 0 -318 -49.5t-259.5 -134t-235.5 -219.5q-19 -21 -19 -45q0 -26 19 -45t45 -19q24 0 45 19q27 24 74 71t67 66q137 124 268.5 176t313.5 52q26 0 45 19t19 45zM1792 1030q0 -95 -20 -193q-46 -224 -184.5 -383t-357.5 -268 q-214 -108 -438 -108q-148 0 -286 47q-15 5 -88 42t-96 37q-16 0 -39.5 -32t-45 -70t-52.5 -70t-60 -32q-30 0 -51 11t-31 24t-27 42q-2 4 -6 11t-5.5 10t-3 9.5t-1.5 13.5q0 35 31 73.5t68 65.5t68 56t31 48q0 4 -14 38t-16 44q-9 51 -9 104q0 115 43.5 220t119 184.5 t170.5 139t204 95.5q55 18 145 25.5t179.5 9t178.5 6t163.5 24t113.5 56.5l29.5 29.5t29.5 28t27 20t36.5 16t43.5 4.5q39 0 70.5 -46t47.5 -112t24 -124t8 -96z" />
<glyph unicode="&#xf06d;" horiz-adv-x="1408" d="M1408 -160v-64q0 -13 -9.5 -22.5t-22.5 -9.5h-1344q-13 0 -22.5 9.5t-9.5 22.5v64q0 13 9.5 22.5t22.5 9.5h1344q13 0 22.5 -9.5t9.5 -22.5zM1152 896q0 -78 -24.5 -144t-64 -112.5t-87.5 -88t-96 -77.5t-87.5 -72t-64 -81.5t-24.5 -96.5q0 -96 67 -224l-4 1l1 -1 q-90 41 -160 83t-138.5 100t-113.5 122.5t-72.5 150.5t-27.5 184q0 78 24.5 144t64 112.5t87.5 88t96 77.5t87.5 72t64 81.5t24.5 96.5q0 94 -66 224l3 -1l-1 1q90 -41 160 -83t138.5 -100t113.5 -122.5t72.5 -150.5t27.5 -184z" />
<glyph unicode="&#xf06e;" horiz-adv-x="1792" d="M1664 576q-152 236 -381 353q61 -104 61 -225q0 -185 -131.5 -316.5t-316.5 -131.5t-316.5 131.5t-131.5 316.5q0 121 61 225q-229 -117 -381 -353q133 -205 333.5 -326.5t434.5 -121.5t434.5 121.5t333.5 326.5zM944 960q0 20 -14 34t-34 14q-125 0 -214.5 -89.5 t-89.5 -214.5q0 -20 14 -34t34 -14t34 14t14 34q0 86 61 147t147 61q20 0 34 14t14 34zM1792 576q0 -34 -20 -69q-140 -230 -376.5 -368.5t-499.5 -138.5t-499.5 139t-376.5 368q-20 35 -20 69t20 69q140 229 376.5 368t499.5 139t499.5 -139t376.5 -368q20 -35 20 -69z" />
<glyph unicode="&#xf070;" horiz-adv-x="1792" d="M555 201l78 141q-87 63 -136 159t-49 203q0 121 61 225q-229 -117 -381 -353q167 -258 427 -375zM944 960q0 20 -14 34t-34 14q-125 0 -214.5 -89.5t-89.5 -214.5q0 -20 14 -34t34 -14t34 14t14 34q0 86 61 147t147 61q20 0 34 14t14 34zM1307 1151q0 -7 -1 -9 q-105 -188 -315 -566t-316 -567l-49 -89q-10 -16 -28 -16q-12 0 -134 70q-16 10 -16 28q0 12 44 87q-143 65 -263.5 173t-208.5 245q-20 31 -20 69t20 69q153 235 380 371t496 136q89 0 180 -17l54 97q10 16 28 16q5 0 18 -6t31 -15.5t33 -18.5t31.5 -18.5t19.5 -11.5 q16 -10 16 -27zM1344 704q0 -139 -79 -253.5t-209 -164.5l280 502q8 -45 8 -84zM1792 576q0 -35 -20 -69q-39 -64 -109 -145q-150 -172 -347.5 -267t-419.5 -95l74 132q212 18 392.5 137t301.5 307q-115 179 -282 294l63 112q95 -64 182.5 -153t144.5 -184q20 -34 20 -69z " />
<glyph unicode="&#xf071;" horiz-adv-x="1792" d="M1024 161v190q0 14 -9.5 23.5t-22.5 9.5h-192q-13 0 -22.5 -9.5t-9.5 -23.5v-190q0 -14 9.5 -23.5t22.5 -9.5h192q13 0 22.5 9.5t9.5 23.5zM1022 535l18 459q0 12 -10 19q-13 11 -24 11h-220q-11 0 -24 -11q-10 -7 -10 -21l17 -457q0 -10 10 -16.5t24 -6.5h185 q14 0 23.5 6.5t10.5 16.5zM1008 1469l768 -1408q35 -63 -2 -126q-17 -29 -46.5 -46t-63.5 -17h-1536q-34 0 -63.5 17t-46.5 46q-37 63 -2 126l768 1408q17 31 47 49t65 18t65 -18t47 -49z" />
<glyph unicode="&#xf072;" horiz-adv-x="1408" d="M1376 1376q44 -52 12 -148t-108 -172l-225 -225l160 -696q5 -19 -12 -33l-128 -96q-7 -6 -19 -6q-4 0 -7 1q-15 3 -21 16l-279 508l-195 -195l53 -194q5 -17 -8 -31l-96 -96q-9 -9 -23 -9h-2q-15 2 -24 13l-189 252l-252 189q-11 7 -13 23q-1 13 9 25l96 97q9 9 23 9 q6 0 8 -1l194 -53l195 195l-508 279q-14 8 -17 24q-2 16 9 27l128 128q14 13 30 8l665 -159l224 224q76 76 172 108t148 -12z" />
<glyph unicode="&#xf073;" horiz-adv-x="1664" d="M128 -128h288v288h-288v-288zM480 -128h320v288h-320v-288zM128 224h288v320h-288v-320zM480 224h320v320h-320v-320zM128 608h288v288h-288v-288zM864 -128h320v288h-320v-288zM480 608h320v288h-320v-288zM1248 -128h288v288h-288v-288zM864 224h320v320h-320v-320z M512 1088v288q0 13 -9.5 22.5t-22.5 9.5h-64q-13 0 -22.5 -9.5t-9.5 -22.5v-288q0 -13 9.5 -22.5t22.5 -9.5h64q13 0 22.5 9.5t9.5 22.5zM1248 224h288v320h-288v-320zM864 608h320v288h-320v-288zM1248 608h288v288h-288v-288zM1280 1088v288q0 13 -9.5 22.5t-22.5 9.5h-64 q-13 0 -22.5 -9.5t-9.5 -22.5v-288q0 -13 9.5 -22.5t22.5 -9.5h64q13 0 22.5 9.5t9.5 22.5zM1664 1152v-1280q0 -52 -38 -90t-90 -38h-1408q-52 0 -90 38t-38 90v1280q0 52 38 90t90 38h128v96q0 66 47 113t113 47h64q66 0 113 -47t47 -113v-96h384v96q0 66 47 113t113 47 h64q66 0 113 -47t47 -113v-96h128q52 0 90 -38t38 -90z" />
<glyph unicode="&#xf074;" horiz-adv-x="1792" d="M666 1055q-60 -92 -137 -273q-22 45 -37 72.5t-40.5 63.5t-51 56.5t-63 35t-81.5 14.5h-224q-14 0 -23 9t-9 23v192q0 14 9 23t23 9h224q250 0 410 -225zM1792 256q0 -14 -9 -23l-320 -320q-9 -9 -23 -9q-13 0 -22.5 9.5t-9.5 22.5v192q-32 0 -85 -0.5t-81 -1t-73 1 t-71 5t-64 10.5t-63 18.5t-58 28.5t-59 40t-55 53.5t-56 69.5q59 93 136 273q22 -45 37 -72.5t40.5 -63.5t51 -56.5t63 -35t81.5 -14.5h256v192q0 14 9 23t23 9q12 0 24 -10l319 -319q9 -9 9 -23zM1792 1152q0 -14 -9 -23l-320 -320q-9 -9 -23 -9q-13 0 -22.5 9.5t-9.5 22.5 v192h-256q-48 0 -87 -15t-69 -45t-51 -61.5t-45 -77.5q-32 -62 -78 -171q-29 -66 -49.5 -111t-54 -105t-64 -100t-74 -83t-90 -68.5t-106.5 -42t-128 -16.5h-224q-14 0 -23 9t-9 23v192q0 14 9 23t23 9h224q48 0 87 15t69 45t51 61.5t45 77.5q32 62 78 171q29 66 49.5 111 t54 105t64 100t74 83t90 68.5t106.5 42t128 16.5h256v192q0 14 9 23t23 9q12 0 24 -10l319 -319q9 -9 9 -23z" />
<glyph unicode="&#xf075;" horiz-adv-x="1792" d="M1792 640q0 -174 -120 -321.5t-326 -233t-450 -85.5q-70 0 -145 8q-198 -175 -460 -242q-49 -14 -114 -22q0E8540EAE1" />
<glyph unicode="&#xf076;" d="M1536 704v-128q0 -201 -98.5 -362t-274 -251.5t-395.5 -90.5t-395.5 90.5t-274 251.5t-98.5 362v128q0 26 19 45t45 19h384q26 0 45 -19t19 -45v-128q0 -52 23.5 -90t53.5 -57t71 -30t64 -13t44 -2t44 2t64 13t71 30t53.5 57t23.5 90v128q0 26 19 45t45 19h384 q26 0 45 -19t19 -45zM512 1344v-384q0 -26 -19 -45t-45 -19h-384q-26 0 -45 19t-19 45v384q0 26 19 45t45 19h384q26 0 45 -19t19 -45zM1536 1344v-384q0 -26 -19 -45t-45 -19h-384q-26 0 -45 19t-19 45v384q0 26 19 45t45 19h384q26 0 45 -19t19 -45z" />
<glyph unicode="&#xf077;" horiz-adv-x="1664" d="M1611 320q0 -53 -37 -90l-75 -75q-38 -38 -91 -38q-54 0 -90 38l-486 485l-486 -485q-36 -38 -90 -38t-90 38l-75 75q-38 36 -38 90q0 53 38 91l651 651q37 37 90 37q52 0 91 -37l650 -651q38 -38 38 -91z" />
<glyph unicode="&#xf078;" horiz-adv-x="1664" d="M1611 832q0 -53 -37 -90l-651 -651q-38 -38 -91 -38q-54 0 -90 38l-651 651q-38 36 -38 90q0 53 38 91l74 75q39 37 91 37q53 0 90 -37l486 -486l486 486q37 37 90 37q52 0 91 -37l75 -75q37 -39 37 -91z" />
<glyph unicode="&#xf079;" horiz-adv-x="1920" d="M1280 32q0 -13 -9.5 -22.5t-22.5 -9.5h-960q-8 0 -13.5 2t-9 7t-5.5 8t-3 11.5t-1 11.5v13v11v160v416h-192q-26 0 -45 19t-19 45q0 24 15 41l320 384q19 22 49 22t49 -22l320 -384q15 -17 15 -41q0 -26 -19 -45t-45 -19h-192v-384h576q16 0 25 -11l160 -192q7 -11 7 -21 zM1920 448q0 -24 -15 -41l-320 -384q-20 -23 -49 -23t-49 23l-320 384q-15 17 -15 41q0 26 19 45t45 19h192v384h-576q-16 0 -25 12l-160 192q-7 9 -7 20q0 13 9.5 22.5t22.5 9.5h960q8 0 13.5 -2t9 -7t5.5 -8t3 -11.5t1 -11.5v-13v-11v-160v-416h192q26 0 45 -19t19 -45z " />
<glyph unicode="&#xf07a;" horiz-adv-x="1664" d="M640 0q0 -53 -37.5 -90.5t-90.5 -37.5t-90.5 37.5t-37.5 90.5t37.5 90.5t90.5 37.5t90.5 -37.5t37.5 -90.5zM1536 0q0 -53 -37.5 -90.5t-90.5 -37.5t-90.5 37.5t-37.5 90.5t37.5 90.5t90.5 37.5t90.5 -37.5t37.5 -90.5zM1664 1088v-512q0 -24 -16 -42.5t-41 -21.5 l-1044 -122q1 -7 4.5 -21.5t6 -26.5t2.5 -22q0 -16 -24 -64h920q26 0 45 -19t19 -45t-19 -45t-45 -19h-1024q-26 0 -45 19t-19 45q0 14 11 39.5t29.5 59.5t20.5 38l-177 823h-204q-26 0 -45 19t-19 45t19 45t45 19h256q16 0 28.5 -6.5t20 -15.5t13 -24.5t7.5 -26.5 t5.5 -29.5t4.5 -25.5h1201q26 0 45 -19t19 -45z" />
<glyph unicode="&#xf07b;" horiz-adv-x="1664" d="M1664 928v-704q0 -92 -66 -158t-158 -66h-1216q-92 0 -158 66t-66 158v960q0 92 66 158t158 66h320q92 0 158 -66t66 -158v-32h672q92 0 158 -66t66 -158z" />
<glyph unicode="&#xf07c;" horiz-adv-x="1920" d="M1879 584q0 -31 -31 -66l-336 -396q-43 -51 -120.5 -86.5t-143.5 -35.5h-1088q-34 0 -60.5 13t-26.5 43q0 31 31 66l336 396q43 51 120.5 86.5t143.5 35.5h1088q34 0 60.5 -13t26.5 -43zM1536 928v-160h-832q-94 0 -197 -47.5t-164 -119.5l-337 -396l-5 -6q0 4 -0.5 12.5 t-0.5 12.5v960q0 92 66 158t158 66h320q92 0 158 -66t66 -158v-32h544q92 0 158 -66t66 -158z" />
<glyph unicode="&#xf07d;" horiz-adv-x="768" d="M704 1216q0 -26 -19 -45t-45 -19h-128v-1024h128q26 0 45 -19t19 -45t-19 -45l-256 -256q-19 -19 -45 -19t-45 19l-256 256q-19 19 -19 45t19 45t45 19h128v1024h-128q-26 0 -45 19t-19 45t19 45l256 256q19 19 45 19t45 -19l256 -256q19 -19 19 -45z" />
<glyph unicode="&#xf07e;" horiz-adv-x="1792" d="M1792 640q0 -26 -19 -45l-256 -256q-19 -19 -45 -19t-45 19t-19 45v128h-1024v-128q0 -26 -19 -45t-45 -19t-45 19l-256 256q-19 19 -19 45t19 45l256 256q19 19 45 19t45 -19t19 -45v-128h1024v128q0 26 19 45t45 19t45 -19l256 -256q19 -19 19 -45z" />
<glyph unicode="&#xf080;" horiz-adv-x="1920" d="M512 512v-384h-256v384h256zM896 1024v-896h-256v896h256zM1280 768v-640h-256v640h256zM1664 1152v-1024h-256v1024h256zM1792 32v1216q0 13 -9.5 22.5t-22.5 9.5h-1600q-13 0 -22.5 -9.5t-9.5 -22.5v-1216q0 -13 9.5 -22.5t22.5 -9.5h1600q13 0 22.5 9.5t9.5 22.5z M1920 1248v-1216q0 -66 -47 -113t-113 -47h-1600q-66 0 -113 47t-47 113v1216q0 66 47 113t113 47h1600q66 0 113 -47t47 -113z" />
<glyph unicode="&#xf081;" d="M1280 926q-56 -25 -121 -34q68 40 93 117q-65 -38 -134 -51q-61 66 -153 66q-87 0 -148.5 -61.5t-61.5 -140E003D4A36" />
<glyph unicode="&#xf082;" d="M1307 618l23 219h-198v109q0 49 15.5 68.5t71.5 19.5h110v219h-175q-152 0 -218 -72t-66 -213v-131h-131v-055A5CFA75" />
<glyph unicode="&#xf083;" horiz-adv-x="1792" d="M928 704q0 14 -9 23t-23 9q-66 0 -113 -47t-47 -113q0 -14 9 -23t23 -9t23 9t9 23q0 40 28 68t68 28q14 0 0BF0BDBA1F" />
<glyph unicode="&#xf084;" horiz-adv-x="1792" d="M832 1024q0 80 -56 136t-136 56t-136 -56t-56 -136q0 -42 19 -83q-41 19 -83 19q-80 0 -136 -56t-56 -136t56 -136t136 -56t136 56t56 136q0 42 -19 83q41 -19 83 -19q80 0 136 56t56 136zM1683 320q0 -17 -49 -66t-66 -49q-9 0 -28.5 16t-36.5 33t-38.5 40t-24.5 26 l-96 -96l220 -220q28 -28 28 -68q0 -42 -39 -81t-81 -39q-40 0 -68 28l-671 671q-176 -131 -365 -131q-163 0 -265.5 102.5t-102.5 265.5q0 160 95 313t248 248t313 95q163 0 265.5 -102.5t102.5 -265.5q0 -189 -131 -365l355 -355l96 96q-3 3 -26 24.5t-40 38.5t-33 36.5 t-16 28.5q0 17 49 66t66 49q13 0 23 -10q6 -6 46 -44.5t82 -79.5t86.5 -86t73 -78t28.5 -41z" />
<glyph unicode="&#xf085;" horiz-adv-x="1920" d="M896 640q0 106 -75 181t-181 75t-181 -75t-75 -181t75 -181t181 -75t181 75t75 181zM1664 128q0 52 -38 90t-90 38t-90 -38t-38 -90q0 -53 37.5 -90.5t90.5 -37.5t90.5 37.5t37.5 90.5zM1664 1152q0 52 -38 90t-90 38t-90 -38t-38 -90q0 -53 37.5 -90.5t90.5 -37.5 t90.5 37.5t37.5 90.5zM1280 731v-185q0 -10 -7 -19.5t-16 -10.5l-155 -24q-11 -35 -32 -76q34 -48 90 -115q7 -10 7 -20q0 -12 -7 -19q-23 -30 -82.5 -89.5t-78.5 -59.5q-11 0 -21 7l-115 90q-37 -19 -77 -31q-11 -108 -23 -155q-7 -24 -30 -24h-186q-11 0 -20 7.5t-10 17.5 l-23 153q-34 10 -75 31l-118 -89q-7 -7 -20 -7q-11 0 -21 8q-144 133 -144 160q0 9 7 19q10 14 41 53t47 61q-23 44 -35 82l-152 24q-10 1 -17 9.5t-7 19.5v185q0 10 7 19.5t16 10.5l155 24q11 35 32 76q-34 48 -90 115q-7 11 -7 20q0 12 7 20q22 30 82 89t79 59q11 0 21 -7 l115 -90q34 18 77 32q11 108 23 154q7 24 30 24h186q11 0 20 -7.5t10 -17.5l23 -153q34 -10 75 -31l118 89q8 7 20 7q11 0 21 -8q144 -133 144 -160q0 -9 -7 -19q-12 -16 -42 -54t-45 -60q23 -48 34 -82l152 -23q10 -2 17 -10.5t7 -19.5zM1920 198v-140q0 -16 -149 -31 q-12 -27 -30 -52q51 -113 51 -138q0 -4 -4 -7q-122 -71 -124 -71q-8 0 -46 47t-52 68q-20 -2 -30 -2t-30 2q-14 -21 -52 -68t-46 -47q-2 0 -124 71q-4 3 -4 7q0 25 51 138q-18 25 -30 52q-149 15 -149 31v140q0 16 149 31q13 29 30 52q-51 113 -51 138q0 4 4 7q4 2 35 20 t59 34t30 16q8 0 46 -46.5t52 -67.5q20 2 30 2t30 -2q51 71 92 112l6 2q4 0 124 -70q4 -3 4 -7q0 -25 -51 -138q17 -23 30 -52q149 -15 149 -31zM1920 1222v-140q0 -16 -149 -31q-12 -27 -30 -52q51 -113 51 -138q0 -4 -4 -7q-122 -71 -124 -71q-8 0 -46 47t-52 68 q-20 -2 -30 -2t-30 2q-14 -21 -52 -68t-46 -47q-2 0 -124 71q-4 3 -4 7q0 25 51 138q-18 25 -30 52q-149 15 -149 31v140q0 16 149 31q13 29 30 52q-51 113 -51 138q0 4 4 7q4 2 35 20t59 34t30 16q8 0 46 -46.5t52 -67.5q20 2 30 2t30 -2q51 71 92 112l6 2q4 0 124 -70 q4 -3 4 -7q0 -25 -51 -138q17 -23 30 -52q149 -15 149 -31z" />
<glyph unicode="&#xf086;" horiz-adv-x="1792" d="M1408 768q0 -139 -94 -257t-256.5 -186.5t-353.5 -68.5q-86 0 -176 16q-124 -88 -278 -128q-36 -9 -86 -16h-3q-11 0 -20.5 8t-11.5 21q-1 3 -1 6.5t0.5 6.5t2 6l2.5 5t3.5 5.5t4 5t4.5 5t4 4.5q5 6 23 25t26 29.5t22.5 29t25 38.5t20.5 44q-124 72 -195 177t-71 224 q0 139 94 257t256.5 186.5t353.5 68.5t353.5 -68.5t256.5 -186.5t94 -257zM1792 512q0 -120 -71 -224.5t-195 -176.5q10 -24 20.5 -44t25 -38.5t22.5 -29t26 -29.5t23 -25q1 -1 4 -4.5t4.5 -5t4 -5t3.5 -5.5l2.5 -5t2 -6t0.5 -6.5t-1 -6.5q-3 -14 -13 -22t-22 -7 q-50 7 -86 16q-154 40 -278 128q-90 -16 -176 -16q-271 0 -472 132q58 -4 88 -4q161 0 309 45t264 129q125 92 192 212t67 254q0 77 -23 152q129 -71 204 -178t75 -230z" />
<glyph unicode="&#xf087;" d="M256 192q0 26 -19 45t-45 19t-45 -19t-19 -45t19 -45t45 -19t45 19t19 45zM1408 768q0 51 -39 89.5t-89 38.5h-352q0 58 48 159.5t48 160.5q0 98 -32 145t-128 47q-26 -26 -38 -85t-30.5 -125.5t-59.5 -109.5q-22 -23 -77 -91q-4 -5 -23 -30t-31.5 -41t-34.5 -42.5 t-40 -44t-38.5 -35.5t-40 -27t-35.5 -9h-32v-640h32q13 0 31.5 -3t33 -6.5t38 -11t35 -11.5t35.5 -12.5t29 -10.5q211 -73 342 -73h121q192 0 192 167q0 26 -5 56q30 16 47.5 52.5t17.5 73.5t-18 69q53 50 53 119q0 25 -10 55.5t-25 47.5q32 1 53.5 47t21.5 81zM1536 769 q0 -89 -49 -163q9 -33 9 -69q0 -77 -38 -144q3 -21 3 -43q0 -101 -60 -178q1 -139 -85 -219.5t-227 -80.5h-36h-93q-96 0 -189.5 22.5t-216.5 65.5q-116 40 -138 40h-288q-53 0 -90.5 37.5t-37.5 90.5v640q0 53 37.5 90.5t90.5 37.5h274q36 24 137 155q58 75 107 128 q24 25 35.5 85.5t30.5 126.5t62 108q39 37 90 37q84 0 151 -32.5t102 -101.5t35 -186q0 -93 -48 -192h176q104 0 180 -76t76 -179z" />
<glyph unicode="&#xf088;" d="M256 1088q0 26 -19 45t-45 19t-45 -19t-19 -45t19 -45t45 -19t45 19t19 45zM1408 512q0 35 -21.5 81t-53.5 47q15 17 25 47.5t10 55.5q0 69 -53 119q18 32 18 69t-17.5 73.5t-47.5 52.5q5 30 5 56q0 85 -49 126t-136 41h-128q-131 0 -342 -73q-5 -2 -29 -10.5 t-35.5 -12.5t-35 -11.5t-38 -11t-33 -6.5t-31.5 -3h-32v-640h32q16 0 35.5 -9t40 -27t38.5 -35.5t40 -44t34.5 -42.5t31.5 -41t23 -30q55 -68 77 -91q41 -43 59.5 -109.5t30.5 -125.5t38 -85q96 0 128 47t32 145q0 59 -48 160.5t-48 159.5h352q50 0 89 38.5t39 89.5z M1536 511q0 -103 -76 -179t-180 -76h-176q48 -99 48 -192q0 -118 -35 -186q-35 -69 -102 -101.5t-151 -32.5q-51 0 -90 37q-34 33 -54 82t-25.5 90.5t-17.5 84.5t-31 64q-48 50 -107 127q-101 131 -137 155h-274q-53 0 -90.5 37.5t-37.5 90.5v640q0 53 37.5 90.5t90.5 37.5 h288q22 0 138 40q128 44 223 66t200 22h112q140 0 226.5 -79t85.5 -216v-5q60 -77 60 -178q0 -22 -3 -43q38 -67 38 -144q0 -36 -9 -69q49 -74 49 -163z" />
<glyph unicode="&#xf089;" horiz-adv-x="896" d="M832 1504v-1339l-449 -236q-22 -12 -40 -12q-21 0 -31.5 14.5t-10.5 35.5q0 6 2 20l86 500l-364 354q-25 27 -25 48q0 37 56 46l502 73l225 455q19 41 49 41z" />
<glyph unicode="&#xf08a;" horiz-adv-x="1792" d="M1664 940q0 81 -21.5 143t-55 98.5t-81.5 59.5t-94 31t-98 8t-112 -25.5t-110.5 -64t-86.5 -72t-60 -61.5q-18 -22 -49 -22t-49 22q-24 28 -60 61.5t-86.5 72t-110.5 64t-112 25.5t-98 -8t-94 -31t-81.5 -59.5t-55 -98.5t-21.5 -143q0 -168 187 -355l581 -560l580 559 q188 188 188 356zM1792 940q0 -221 -229 -450l-623 -600q-18 -18 -44 -18t-44 18l-624 602q-10 8 -27.5 26t-55.5 65.5t-68 97.5t-53.5 121t-23.5 138q0 220 127 344t351 124q62 0 126.5 -21.5t120 -58t95.5 -68.5t76 -68q36 36 76 68t95.5 68.5t120 58t126.5 21.5 q224 0 351 -124t127 -344z" />
<glyph unicode="&#xf08b;" horiz-adv-x="1664" d="M640 96q0 -4 1 -20t0.5 -26.5t-3 -23.5t-10 -19.5t-20.5 -6.5h-320q-119 0 -203.5 84.5t-84.5 203.5v704q0 119 84.5 203.5t203.5 84.5h320q13 0 22.5 -9.5t9.5 -22.5q0 -4 1 -20t0.5 -26.5t-3 -23.5t-10 -19.5t-20.5 -6.5h-320q-66 0 -113 -47t-47 -113v-704 q0 -66 47 -113t113 -47h288h11h13t11.5 -1t11.5 -3t8 -5.5t7 -9t2 -13.5zM1568 640q0 -26 -19 -45l-544 -544q-19 -19 -45 -19t-45 19t-19 45v288h-448q-26 0 -45 19t-19 45v384q0 26 19 45t45 19h448v288q0 26 19 45t45 19t45 -19l544 -544q19 -19 19 -45z" />
<glyph unicode="&#xf08c;" d="M237 122h231v694h-231v-694zM483 1030q-1 52 -36 86t-93 34t-94.5 -34t-36.5 -86q0 -51 35.5 -85.5t92.5 -080F39DA31" />
<glyph unicode="&#xf08d;" horiz-adv-x="1152" d="M480 672v448q0 14 -9 23t-23 9t-23 -9t-9 -23v-448q0 -14 9 -23t23 -9t23 9t9 23zM1152 320q0 -26 -19 -450F67494A75" />
<glyph unicode="&#xf08e;" horiz-adv-x="1792" d="M1408 608v-320q0 -119 -84.5 -203.5t-203.5 -84.5h-832q-119 0 -203.5 84.5t-84.5 203.5v832q0 119 84.5 203.5t203.5 84.5h704q14 0 23 -9t9 -23v-64q0 -14 -9 -23t-23 -9h-704q-66 0 -113 -47t-47 -113v-832q0 -66 47 -113t113 -47h832q66 0 113 47t47 113v320 q0 14 9 23t23 9h64q14 0 23 -9t9 -23zM1792 1472v-512q0 -26 -19 -45t-45 -19t-45 19l-176 176l-652 -652q-10 -10 -23 -10t-23 10l-114 114q-10 10 -10 23t10 23l652 652l-176 176q-19 19 -19 45t19 45t45 19h512q26 0 45 -19t19 -45z" />
<glyph unicode="&#xf090;" d="M1184 640q0 -26 -19 -45l-544 -544q-19 -19 -45 -19t-45 19t-19 45v288h-448q-26 0 -45 19t-19 45v384q0 206FF295A6D" />
<glyph unicode="&#xf091;" horiz-adv-x="1664" d="M458 653q-74 162 -74 371h-256v-96q0 -78 94.5 -162t235.5 -113zM1536 928v96h-256q0 -209 -74 -371q141 29 235.5 113t94.5 162zM1664 1056v-128q0 -71 -41.5 -143t-112 -130t-173 -97.5t-215.5 -44.5q-42 -54 -95 -95q-38 -34 -52.5 -72.5t-14.5 -89.5q0 -54 30.5 -91 t97.5 -37q75 0 133.5 -45.5t58.5 -114.5v-64q0 -14 -9 -23t-23 -9h-832q-14 0 -23 9t-9 23v64q0 69 58.5 114.5t133.5 45.5q67 0 97.5 37t30.5 91q0 51 -14.5 89.5t-52.5 72.5q-53 41 -95 95q-113 5 -215.5 44.5t-173 97.5t-112 130t-41.5 143v128q0 40 28 68t68 28h288v96 q0 66 47 113t113 47h576q66 0 113 -47t47 -113v-96h288q40 0 68 -28t28 -68z" />
<glyph unicode="&#xf092;" d="M394 184q-8 -9 -20 3q-13 11 -4 19q8 9 20 -3q12 -11 4 -19zM352 245q9 -12 0 -19q-8 -6 -17 7t0 18q9 7 1041AB31A08" />
<glyph unicode="&#xf093;" horiz-adv-x="1664" d="M1280 64q0 26 -19 45t-45 19t-45 -19t-19 -45t19 -45t45 -19t45 19t19 45zM1536 64q0 26 -19 45t-45 19t-45 -19t-19 -45t19 -45t45 -19t45 19t19 45zM1664 288v-320q0 -40 -28 -68t-68 -28h-1472q-40 0 -68 28t-28 68v320q0 40 28 68t68 28h427q21 -56 70.5 -92 t110.5 -36h256q61 0 110.5 36t70.5 92h427q40 0 68 -28t28 -68zM1339 936q-17 -40 -59 -40h-256v-448q0 -26 -19 -45t-45 -19h-256q-26 0 -45 19t-19 45v448h-256q-42 0 -59 40q-17 39 14 69l448 448q18 19 45 19t45 -19l448 -448q31 -30 14 -69z" />
<glyph unicode="&#xf094;" d="M1407 710q0 44 -7 113.5t-18 96.5q-12 30 -17 44t-9 36.5t-4 48.5q0 23 5 68.5t5 67.5q0 37 -10 55q-4 1 -06742F6A1F" />
<glyph unicode="&#xf095;" horiz-adv-x="1408" d="M1408 296q0 -27 -10 -70.5t-21 -68.5q-21 -50 -122 -106q-94 -51 -186 -51q-27 0 -52.5 3.5t-57.5 12.5t-47.5 14.5t-55.5 20.5t-49 18q-98 35 -175 83q-128 79 -264.5 215.5t-215.5 264.5q-48 77 -83 175q-3 9 -18 49t-20.5 55.5t-14.5 47.5t-12.5 57.5t-3.5 52.5 q0 92 51 186q56 101 106 122q25 11 68.5 21t70.5 10q14 0 21 -3q18 -6 53 -76q11 -19 30 -54t35 -63.5t31 -53.5q3 -4 17.5 -25t21.5 -35.5t7 -28.5q0 -20 -28.5 -50t-62 -55t-62 -53t-28.5 -46q0 -9 5 -22.5t8.5 -20.5t14 -24t11.5 -19q76 -137 174 -235t235 -174 q2 -1 19 -11.5t24 -14t20.5 -8.5t22.5 -5q18 0 46 28.5t53 62t55 62t50 28.5q14 0 28.5 -7t35.5 -21.5t25 -17.5q25 -15 53.5 -31t63.5 -35t54 -30q70 -35 76 -53q3 -7 3 -21z" />
<glyph unicode="&#xf096;" horiz-adv-x="1408" d="M1120 1280h-832q-66 0 -113 -47t-47 -113v-832q0 -66 47 -113t113 -47h832q66 0 113 47t47 113v832q0 66 -0C90651A57" />
<glyph unicode="&#xf097;" horiz-adv-x="1280" d="M1152 1280h-1024v-1242l423 406l89 85l89 -85l423 -406v1242zM1164 1408q23 0 44 -9q33 -13 52.5 -41t19.5 -62v-1289q0 -34 -19.5 -62t-52.5 -41q-19 -8 -44 -8q-48 0 -83 32l-441 424l-441 -424q-36 -33 -83 -33q-23 0 -44 9q-33 13 -52.5 41t-19.5 62v1289 q0 34 19.5 62t52.5 41q21 9 44 9h1048z" />
<glyph unicode="&#xf098;" d="M1280 343q0 11 -2 16q-3 8 -38.5 29.5t-88.5 49.5l-53 29q-5 3 -19 13t-25 15t-21 5q-18 0 -47 -32.5t-57 06E2466A90" />
<glyph unicode="&#xf099;" horiz-adv-x="1664" d="M1620 1128q-67 -98 -162 -167q1 -14 1 -42q0 -130 -38 -259.5t-115.5 -248.5t-184.5 -210.5t-258 -146t-323 -54.5q-271 0 -496 145q35 -4 78 -4q225 0 401 138q-105 2 -188 64.5t-114 159.5q33 -5 61 -5q43 0 85 11q-112 23 -185.5 111.5t-73.5 205.5v4q68 -38 146 -41 q-66 44 -105 115t-39 154q0 88 44 163q121 -149 294.5 -238.5t371.5 -99.5q-8 38 -8 74q0 134 94.5 228.5t228.5 94.5q140 0 236 -102q109 21 205 78q-37 -115 -142 -178q93 10 186 50z" />
<glyph unicode="&#xf09a;" horiz-adv-x="768" d="M511 980h257l-30 -284h-227v-824h-341v824h-170v284h170v171q0 182 86 275.5t283 93.5h227v-284h-142q-39 0 -62.5 -6.5t-34 -23.5t-13.5 -34.5t-3 -49.5v-142z" />
<glyph unicode="&#xf09b;" d="M1536 640q0 -251 -146.5 -451.5t-378.5 -277.5q-27 -5 -39.5 7t-12.5 30v211q0 97 -52 142q57 6 102.5 18t010A1D5A8F" />
<glyph unicode="&#xf09c;" horiz-adv-x="1664" d="M704 160q0 6 -15 57t-35 115.5t-20 65.5q32 16 51 47t19 67q0 53 -37.5 90.5t-90.5 37.5t-90.5 -37.5t-37.0B608ABAB8" />
<glyph unicode="&#xf09d;" horiz-adv-x="1920" d="M1760 1408q66 0 113 -47t47 -113v-1216q0 -66 -47 -113t-113 -47h-1600q-66 0 -113 47t-47 113v1216q0 66 47 113t113 47h1600zM160 1280q-13 0 -22.5 -9.5t-9.5 -22.5v-224h1664v224q0 13 -9.5 22.5t-22.5 9.5h-1600zM1760 0q13 0 22.5 9.5t9.5 22.5v608h-1664v-608 q0 -13 9.5 -22.5t22.5 -9.5h1600zM256 128v128h256v-128h-256zM640 128v128h384v-128h-384z" />
<glyph unicode="&#xf09e;" horiz-adv-x="1408" d="M384 192q0 -80 -56 -136t-136 -56t-136 56t-56 136t56 136t136 56t136 -56t56 -136zM896 69q2 -28 -17 -480A03AF1A29" />
<glyph unicode="&#xf0a0;" d="M1040 320q0 -33 -23.5 -56.5t-56.5 -23.5t-56.5 23.5t-23.5 56.5t23.5 56.5t56.5 23.5t56.5 -23.5t23.5 -56.5zM1296 320q0 -33 -23.5 -56.5t-56.5 -23.5t-56.5 23.5t-23.5 56.5t23.5 56.5t56.5 23.5t56.5 -23.5t23.5 -56.5zM1408 160v320q0 13 -9.5 22.5t-22.5 9.5 h-1216q-13 0 -22.5 -9.5t-9.5 -22.5v-320q0 -13 9.5 -22.5t22.5 -9.5h1216q13 0 22.5 9.5t9.5 22.5zM178 640h1180l-157 482q-4 13 -16 21.5t-26 8.5h-782q-14 0 -26 -8.5t-16 -21.5zM1536 480v-320q0 -66 -47 -113t-113 -47h-1216q-66 0 -113 47t-47 113v320q0 25 16 75 l197 606q17 53 63 86t101 33h782q55 0 101 -33t63 -86l197 -606q16 -50 16 -75z" />
<glyph unicode="&#xf0a1;" horiz-adv-x="1792" d="M1664 896q53 0 90.5 -37.5t37.5 -90.5t-37.5 -90.5t-90.5 -37.5v-384q0 -52 -38 -90t-90 -38q-417 347 -812 380q-58 -19 -91 -66t-31 -100.5t40 -92.5q-20 -33 -23 -65.5t6 -58t33.5 -55t48 -50t61.5 -50.5q-29 -58 -111.5 -83t-168.5 -11.5t-132 55.5q-7 23 -29.5 87.5 t-32 94.5t-23 89t-15 101t3.5 98.5t22 110.5h-122q-66 0 -113 47t-47 113v192q0 66 47 113t113 47h480q435 0 896 384q52 0 90 -38t38 -90v-384zM1536 292v954q-394 -302 -768 -343v-270q377 -42 768 -341z" />
<glyph unicode="&#xf0a2;" horiz-adv-x="1664" d="M848 -160q0 16 -16 16q-59 0 -101.5 42.5t-42.5 101.5q0 16 -16 16t-16 -16q0 -73 51.5 -124.5t124.5 -51.05945DAA94" />
<glyph unicode="&#xf0a3;" d="M1376 640l138 -135q30 -28 20 -70q-12 -41 -52 -51l-188 -48l53 -186q12 -41 -19 -70q-29 -31 -70 -19l-186 53l-48 -188q-10 -40 -51 -52q-12 -2 -19 -2q-31 0 -51 22l-135 138l-135 -138q-28 -30 -70 -20q-41 11 -51 52l-48 188l-186 -53q-41 -12 -70 19q-31 29 -19 70 l53 186l-188 48q-40 10 -52 51q-10 42 20 70l138 135l-138 135q-30 28 -20 70q12 41 52 51l188 48l-53 186q-12 41 19 70q29 31 70 19l186 -53l48 188q10 41 51 51q41 12 70 -19l135 -139l135 139q29 30 70 19q41 -10 51 -51l48 -188l186 53q41 12 70 -19q31 -29 19 -70 l-53 -186l188 -48q40 -10 52 -51q10 -42 -20 -70z" />
<glyph unicode="&#xf0a4;" horiz-adv-x="1792" d="M256 192q0 26 -19 45t-45 19t-45 -19t-19 -45t19 -45t45 -19t45 19t19 45zM1664 768q0 51 -39 89.5t-89 38.5h-576q0 20 15 48.5t33 55t33 68t15 84.5q0 67 -44.5 97.5t-115.5 30.5q-24 0 -90 -139q-24 -44 -37 -65q-40 -64 -112 -145q-71 -81 -101 -106 q-69 -57 -140 -57h-32v-640h32q72 0 167 -32t193.5 -64t179.5 -32q189 0 189 167q0 26 -5 56q30 16 47.5 52.5t17.5 73.5t-18 69q53 50 53 119q0 25 -10 55.5t-25 47.5h331q52 0 90 38t38 90zM1792 769q0 -105 -75.5 -181t-180.5 -76h-169q-4 -62 -37 -119q3 -21 3 -43 q0 -101 -60 -178q1 -139 -85 -219.5t-227 -80.5q-133 0 -322 69q-164 59 -223 59h-288q-53 0 -90.5 37.5t-37.5 90.5v640q0 53 37.5 90.5t90.5 37.5h288q10 0 21.5 4.5t23.5 14t22.5 18t24 22.5t20.5 21.5t19 21.5t14 17q65 74 100 129q13 21 33 62t37 72t40.5 63t55 49.5 t69.5 17.5q125 0 206.5 -67t81.5 -189q0 -68 -22 -128h374q104 0 180 -76t76 -179z" />
<glyph unicode="&#xf0a5;" horiz-adv-x="1792" d="M1376 128h32v640h-32q-35 0 -67.5 12t-62.5 37t-50 46t-49 54q-2 3 -3.5 4.5t-4 4.5t-4.5 5q-72 81 -112 10FEA408A2A" />
<glyph unicode="&#xf0a6;" d="M1280 -64q0 26 -19 45t-45 19t-45 -19t-19 -45t19 -45t45 -19t45 19t19 45zM1408 700q0 189 -167 189q-26 0 -56 -5q-16 30 -52.5 47.5t-73.5 17.5t-69 -18q-50 53 -119 53q-25 0 -55.5 -10t-47.5 -25v331q0 52 -38 90t-90 38q-51 0 -89.5 -39t-38.5 -89v-576 q-20 0 -48.5 15t-55 33t-68 33t-84.5 15q-67 0 -97.5 -44.5t-30.5 -115.5q0 -24 139 -90q44 -24 65 -37q64 -40 145 -112q81 -71 106 -101q57 -69 57 -140v-32h640v32q0 72 32 167t64 193.5t32 179.5zM1536 705q0 -133 -69 -322q-59 -164 -59 -223v-288q0 -53 -37.5 -90.5 t-90.5 -37.5h-640q-53 0 -90.5 37.5t-37.5 90.5v288q0 10 -4.5 21.5t-14 23.5t-18 22.5t-22.5 24t-21.5 20.5t-21.5 19t-17 14q-74 65 -129 100q-21 13 -62 33t-72 37t-63 40.5t-49.5 55t-17.5 69.5q0 125 67 206.5t189 81.5q68 0 128 -22v374q0 104 76 180t179 76 q105 0 181 -75.5t76 -180.5v-169q62 -4 119 -37q21 3 43 3q101 0 178 -60q139 1 219.5 -85t80.5 -227z" />
<glyph unicode="&#xf0a7;" d="M1408 576q0 84 -32 183t-64 194t-32 167v32h-640v-32q0 -35 -12 -67.5t-37 -62.5t-46 -50t-54 -49q-9 -8 -14 -12q-81 -72 -145 -112q-22 -14 -68 -38q-3 -1 -22.5 -10.5t-36 -18.5t-35.5 -20t-30.5 -21.5t-11.5 -18.5q0 -71 30.5 -115.5t97.5 -44.5q43 0 84.5 15t68 33 t55 33t48.5 15v-576q0 -50 38.5 -89t89.5 -39q52 0 90 38t38 90v331q46 -35 103 -35q69 0 119 53q32 -18 69 -18t73.5 17.5t52.5 47.5q24 -4 56 -4q85 0 126 48.5t41 135.5zM1280 1344q0 26 -19 45t-45 19t-45 -19t-19 -45t19 -45t45 -19t45 19t19 45zM1536 580 q0 -142 -77.5 -230t-217.5 -87l-5 1q-76 -61 -178 -61q-22 0 -43 3q-54 -30 -119 -37v-169q0 -105 -76 -180.5t-181 -75.5q-103 0 -179 76t-76 180v374q-54 -22 -128 -22q-121 0 -188.5 81.5t-67.5 206.5q0 38 17.5 69.5t49.5 55t63 40.5t72 37t62 33q55 35 129 100 q3 2 17 14t21.5 19t21.5 20.5t22.5 24t18 22.5t14 23.5t4.5 21.5v288q0 53 37.5 90.5t90.5 37.5h640q53 0 90.5 -37.5t37.5 -90.5v-288q0 -59 59 -223q69 -190 69 -317z" />
<glyph unicode="&#xf0a8;" d="M1280 576v128q0 26 -19 45t-45 19h-502l189 189q19 19 19 45t-19 45l-91 91q-18 18 -45 18t-45 -18l-362 -0E903B6AF4" />
<glyph unicode="&#xf0a9;" d="M1285 640q0 27 -18 45l-91 91l-362 362q-18 18 -45 18t-45 -18l-91 -91q-18 -18 -18 -45t18 -45l189 -189h09057ABA1D" />
<glyph unicode="&#xf0aa;" d="M1284 641q0 27 -18 45l-362 362l-91 91q-18 18 -45 18t-45 -18l-91 -91l-362 -362q-18 -18 -18 -45t18 -4503FBACBADF" />
<glyph unicode="&#xf0ab;" d="M1284 639q0 27 -18 45l-91 91q-18 18 -45 18t-45 -18l-189 -189v502q0 26 -19 45t-45 19h-128q-26 0 -45 -0E6E28DADE" />
<glyph unicode="&#xf0ac;" d="M1193 993q11 7 25 22v-1q0 -2 -9.5 -10t-11.5 -12q-1 1 -4 1zM1187 992q-1 1 -2.5 3t-1.5 3q3 -2 10 -5q-60A6AACCAF4" />
<glyph unicode="&#xf0ad;" horiz-adv-x="1664" d="M384 64q0 26 -19 45t-45 19t-45 -19t-19 -45t19 -45t45 -19t45 19t19 45zM1028 484l-682 -682q-37 -37 -90 -37q-52 0 -91 37l-106 108q-38 36 -38 90q0 53 38 91l681 681q39 -98 114.5 -173.5t173.5 -114.5zM1662 919q0 -39 -23 -106q-47 -134 -164.5 -217.5 t-258.5 -83.5q-185 0 -316.5 131.5t-131.5 316.5t131.5 316.5t316.5 131.5q58 0 121.5 -16.5t107.5 -46.5q16 -11 16 -28t-16 -28l-293 -169v-224l193 -107q5 3 79 48.5t135.5 81t70.5 35.5q15 0 23.5 -10t8.5 -25z" />
<glyph unicode="&#xf0ae;" horiz-adv-x="1792" d="M1024 128h640v128h-640v-128zM640 640h1024v128h-1024v-128zM1280 1152h384v128h-384v-128zM1792 320v-256q0 -26 -19 -45t-45 -19h-1664q-26 0 -45 19t-19 45v256q0 26 19 45t45 19h1664q26 0 45 -19t19 -45zM1792 832v-256q0 -26 -19 -45t-45 -19h-1664q-26 0 -45 19 t-19 45v256q0 26 19 45t45 19h1664q26 0 45 -19t19 -45zM1792 1344v-256q0 -26 -19 -45t-45 -19h-1664q-26 0 -45 19t-19 45v256q0 26 19 45t45 19h1664q26 0 45 -19t19 -45z" />
<glyph unicode="&#xf0b0;" horiz-adv-x="1408" d="M1403 1241q17 -41 -14 -70l-493 -493v-742q0 -42 -39 -59q-13 -5 -25 -5q-27 0 -45 19l-256 256q-19 19 -19 45v486l-493 493q-31 29 -14 70q17 39 59 39h1280q42 0 59 -39z" />
<glyph unicode="&#xf0b1;" horiz-adv-x="1792" d="M640 1280h512v128h-512v-128zM1792 640v-480q0 -66 -47 -113t-113 -47h-1472q-66 0 -113 47t-47 113v480h672v-160q0 -26 19 -45t45 -19h320q26 0 45 19t19 45v160h672zM1024 640v-128h-256v128h256zM1792 1120v-384h-1792v384q0 66 47 113t113 47h352v160q0 40 28 68 t68 28h576q40 0 68 -28t28 -68v-160h352q66 0 113 -47t47 -113z" />
<glyph unicode="&#xf0b2;" d="M1283 995l-355 -355l355 -355l144 144q29 31 70 14q39 -17 39 -59v-448q0 -26 -19 -45t-45 -19h-448q-42 0 -59 40q-17 39 14 69l144 144l-355 355l-355 -355l144 -144q31 -30 14 -69q-17 -40 -59 -40h-448q-26 0 -45 19t-19 45v448q0 42 40 59q39 17 69 -14l144 -144 l355 355l-355 355l-144 -144q-19 -19 -45 -19q-12 0 -24 5q-40 17 -40 59v448q0 26 19 45t45 19h448q42 0 59 -40q17 -39 -14 -69l-144 -144l355 -355l355 355l-144 144q-31 30 -14 69q17 40 59 40h448q26 0 45 -19t19 -45v-448q0 -42 -39 -59q-13 -5 -25 -5q-26 0 -45 19z " />
<glyph unicode="&#xf0c0;" horiz-adv-x="1920" d="M593 640q-162 -5 -265 -128h-134q-82 0 -138 40.5t-56 118.5q0 353 124 353q6 0 43.5 -21t97.5 -42.5t119 -21.5q67 0 133 23q-5 -37 -5 -66q0 -139 81 -256zM1664 3q0 -120 -73 -189.5t-194 -69.5h-874q-121 0 -194 69.5t-73 189.5q0 53 3.5 103.5t14 109t26.5 108.5 t43 97.5t62 81t85.5 53.5t111.5 20q10 0 43 -21.5t73 -48t107 -48t135 -21.5t135 21.5t107 48t73 48t43 21.5q61 0 111.5 -20t85.5 -53.5t62 -81t43 -97.5t26.5 -108.5t14 -109t3.5 -103.5zM640 1280q0 -106 -75 -181t-181 -75t-181 75t-75 181t75 181t181 75t181 -75 t75 -181zM1344 896q0 -159 -112.5 -271.5t-271.5 -112.5t-271.5 112.5t-112.5 271.5t112.5 271.5t271.5 112.5t271.5 -112.5t112.5 -271.5zM1920 671q0 -78 -56 -118.5t-138 -40.5h-134q-103 123 -265 128q81 117 81 256q0 29 -5 66q66 -23 133 -23q59 0 119 21.5t97.5 42.5 t43.5 21q124 0 124 -353zM1792 1280q0 -106 -75 -181t-181 -75t-181 75t-75 181t75 181t181 75t181 -75t75 -181z" />
<glyph unicode="&#xf0c1;" horiz-adv-x="1664" d="M1456 320q0 40 -28 68l-208 208q-28 28 -68 28q-42 0 -72 -32q3 -3 19 -18.5t21.5 -21.5t15 -19t13 -25.5t3.5 -27.5q0 -40 -28 -68t-68 -28q-15 0 -27.5 3.5t-25.5 13t-19 15t-21.5 21.5t-18.5 19q-33 -31 -33 -73q0 -40 28 -68l206 -207q27 -27 68 -27q40 0 68 26 l147 146q28 28 28 67zM753 1025q0 40 -28 68l-206 207q-28 28 -68 28q-39 0 -68 -27l-147 -146q-28 -28 -28 -67q0 -40 28 -68l208 -208q27 -27 68 -27q42 0 72 31q-3 3 -19 18.5t-21.5 21.5t-15 19t-13 25.5t-3.5 27.5q0 40 28 68t68 28q15 0 27.5 -3.5t25.5 -13t19 -15 t21.5 -21.5t18.5 -19q33 31 33 73zM1648 320q0 -120 -85 -203l-147 -146q-83 -83 -203 -83q-121 0 -204 85l-206 207q-83 83 -83 203q0 123 88 209l-88 88q-86 -88 -208 -88q-120 0 -204 84l-208 208q-84 84 -84 204t85 203l147 146q83 83 203 83q121 0 204 -85l206 -207 q83 -83 83 -203q0 -123 -88 -209l88 -88q86 88 208 88q120 0 204 -84l208 -208q84 -84 84 -204z" />
<glyph unicode="&#xf0c2;" horiz-adv-x="1920" d="M1920 384q0 -159 -112.5 -271.5t-271.5 -112.5h-1088q-185 0 -316.5 131.5t-131.5 316.5q0 132 71 241.5t10853ADFA9F " />
<glyph unicode="&#xf0c3;" horiz-adv-x="1664" d="M1527 88q56 -89 21.5 -152.5t-140.5 -63.5h-1152q-106 0 -140.5 63.5t21.5 152.5l503 793v399h-64q-26 0 -45 19t-19 45t19 45t45 19h512q26 0 45 -19t19 -45t-19 -45t-45 -19h-64v-399zM748 813l-272 -429h712l-272 429l-20 31v37v399h-128v-399v-37z" />
<glyph unicode="&#xf0c4;" horiz-adv-x="1792" d="M960 640q26 0 45 -19t19 -45t-19 -45t-45 -19t-45 19t-19 45t19 45t45 19zM1260 576l507 -398q28 -20 25 -56q-5 -35 -35 -51l-128 -64q-13 -7 -29 -7q-17 0 -31 8l-690 387l-110 -66q-8 -4 -12 -5q14 -49 10 -97q-7 -77 -56 -147.5t-132 -123.5q-132 -84 -277 -84 q-136 0 -222 78q-90 84 -79 207q7 76 56 147t131 124q132 84 278 84q83 0 151 -31q9 13 22 22l122 73l-122 73q-13 9 -22 22q-68 -31 -151 -31q-146 0 -278 84q-82 53 -131 124t-56 147q-5 59 15.5 113t63.5 93q85 79 222 79q145 0 277 -84q83 -52 132 -123t56 -148 q4 -48 -10 -97q4 -1 12 -5l110 -66l690 387q14 8 31 8q16 0 29 -7l128 -64q30 -16 35 -51q3 -36 -25 -56zM579 836q46 42 21 108t-106 117q-92 59 -192 59q-74 0 -113 -36q-46 -42 -21 -108t106 -117q92 -59 192 -59q74 0 113 36zM494 91q81 51 106 117t-21 108 q-39 36 -113 36q-100 0 -192 -59q-81 -51 -106 -117t21 -108q39 -36 113 -36q100 0 192 59zM672 704l96 -58v11q0 36 33 56l14 8l-79 47l-26 -26q-3 -3 -10 -11t-12 -12q-2 -2 -4 -3.5t-3 -2.5zM896 480l96 -32l736 576l-128 64l-768 -431v-113l-160 -96l9 -8q2 -2 7 -6 q4 -4 11 -12t11 -12l26 -26zM1600 64l128 64l-520 408l-177 -138q-2 -3 -13 -7z" />
<glyph unicode="&#xf0c5;" horiz-adv-x="1792" d="M1696 1152q40 0 68 -28t28 -68v-1216q0 -40 -28 -68t-68 -28h-960q-40 0 -68 28t-28 68v288h-544q-40 0 -68 28t-28 68v672q0 40 20 88t48 76l408 408q28 28 76 48t88 20h416q40 0 68 -28t28 -68v-328q68 40 128 40h416zM1152 939l-299 -299h299v299zM512 1323l-299 -299 h299v299zM708 676l316 316v416h-384v-416q0 -40 -28 -68t-68 -28h-416v-640h512v256q0 40 20 88t48 76zM1664 -128v1152h-384v-416q0 -40 -28 -68t-68 -28h-416v-640h896z" />
<glyph unicode="&#xf0c6;" horiz-adv-x="1408" d="M1404 151q0 -117 -79 -196t-196 -79q-135 0 -235 100l-777 776q-113 115 -113 271q0 159 110 270t269 111q158 0 273 -113l605 -606q10 -10 10 -22q0 -16 -30.5 -46.5t-46.5 -30.5q-13 0 -23 10l-606 607q-79 77 -181 77q-106 0 -179 -75t-73 -181q0 -105 76 -181 l776 -777q63 -63 145 -63q64 0 106 42t42 106q0 82 -63 145l-581 581q-26 24 -60 24q-29 0 -48 -19t-19 -48q0 -32 25 -59l410 -410q10 -10 10 -22q0 -16 -31 -47t-47 -31q-12 0 -22 10l-410 410q-63 61 -63 149q0 82 57 139t139 57q88 0 149 -63l581 -581q100 -98 100 -235 z" />
<glyph unicode="&#xf0c7;" d="M384 0h768v384h-768v-384zM1280 0h128v896q0 14 -10 38.5t-20 34.5l-281 281q-10 10 -34 20t-39 10v-416q0 -40 -28 -68t-68 -28h-576q-40 0 -68 28t-28 68v416h-128v-1280h128v416q0 40 28 68t68 28h832q40 0 68 -28t28 -68v-416zM896 928v320q0 13 -9.5 22.5t-22.5 9.5 h-192q-13 0 -22.5 -9.5t-9.5 -22.5v-320q0 -13 9.5 -22.5t22.5 -9.5h192q13 0 22.5 9.5t9.5 22.5zM1536 896v-928q0 -40 -28 -68t-68 -28h-1344q-40 0 -68 28t-28 68v1344q0 40 28 68t68 28h928q40 0 88 -20t76 -48l280 -280q28 -28 48 -76t20 -88z" />
<glyph unicode="&#xf0c8;" d="M1536 1120v-960q0 -119 -84.5 -203.5t-203.5 -84.5h-960q-119 0 -203.5 84.5t-84.5 203.5v960q0 119 84.5 037C5D7AEC" />
<glyph unicode="&#xf0c9;" d="M1536 192v-128q0 -26 -19 -45t-45 -19h-1408q-26 0 -45 19t-19 45v128q0 26 19 45t45 19h1408q26 0 45 -19t19 -45zM1536 704v-128q0 -26 -19 -45t-45 -19h-1408q-26 0 -45 19t-19 45v128q0 26 19 45t45 19h1408q26 0 45 -19t19 -45zM1536 1216v-128q0 -26 -19 -45 t-45 -19h-1408q-26 0 -45 19t-19 45v128q0 26 19 45t45 19h1408q26 0 45 -19t19 -45z" />
<glyph unicode="&#xf0ca;" horiz-adv-x="1792" d="M384 128q0 -80 -56 -136t-136 -56t-136 56t-56 136t56 136t136 56t136 -56t56 -136zM384 640q0 -80 -56 -10141C40A76" />
<glyph unicode="&#xf0cb;" horiz-adv-x="1792" d="M381 -84q0 -80 -54.5 -126t-135.5 -46q-106 0 -172 66l57 88q49 -45 106 -45q29 0 50.5 14.5t21.5 42.5q0 0D2EFEEA4C" />
<glyph unicode="&#xf0cc;" horiz-adv-x="1792" d="M1760 640q14 0 23 -9t9 -23v-64q0 -14 -9 -23t-23 -9h-1728q-14 0 -23 9t-9 23v64q0 14 9 23t23 9h1728zM483 704q-28 35 -51 80q-48 97 -48 188q0 181 134 309q133 127 393 127q50 0 167 -19q66 -12 177 -48q10 -38 21 -118q14 -123 14 -183q0 -18 -5 -45l-12 -3l-84 6 l-14 2q-50 149 -103 205q-88 91 -210 91q-114 0 -182 -59q-67 -58 -67 -146q0 -73 66 -140t279 -129q69 -20 173 -66q58 -28 95 -52h-743zM990 448h411q7 -39 7 -92q0 -111 -41 -212q-23 -55 -71 -104q-37 -35 -109 -81q-80 -48 -153 -66q-80 -21 -203 -21q-114 0 -195 23 l-140 40q-57 16 -72 28q-8 8 -8 22v13q0 108 -2 156q-1 30 0 68l2 37v44l102 2q15 -34 30 -71t22.5 -56t12.5 -27q35 -57 80 -94q43 -36 105 -57q59 -22 132 -22q64 0 139 27q77 26 122 86q47 61 47 129q0 84 -81 157q-34 29 -137 71z" />
<glyph unicode="&#xf0cd;" d="M48 1313q-37 2 -45 4l-3 88q13 1 40 1q60 0 112 -4q132 -7 166 -7q86 0 168 3q116 4 146 5q56 0 86 2l-1 -14l2 -64v-9q-60 -9 -124 -9q-60 0 -79 -25q-13 -14 -13 -132q0 -13 0.5 -32.5t0.5 -25.5l1 -229l14 -280q6 -124 51 -202q35 -59 96 -92q88 -47 177 -47 q104 0 191 28q56 18 99 51q48 36 65 64q36 56 53 114q21 73 21 229q0 79 -3.5 128t-11 122.5t-13.5 159.5l-4 59q-5 67 -24 88q-34 35 -77 34l-100 -2l-14 3l2 86h84l205 -10q76 -3 196 10l18 -2q6 -38 6 -51q0 -7 -4 -31q-45 -12 -84 -13q-73 -11 -79 -17q-15 -15 -15 -41 q0 -7 1.5 -27t1.5 -31q8 -19 22 -396q6 -195 -15 -304q-15 -76 -41 -122q-38 -65 -112 -123q-75 -57 -182 -89q-109 -33 -255 -33q-167 0 -284 46q-119 47 -179 122q-61 76 -83 195q-16 80 -16 237v333q0 188 -17 213q-25 36 -147 39zM1536 -96v64q0 14 -9 23t-23 9h-1472 q-14 0 -23 -9t-9 -23v-64q0 -14 9 -23t23 -9h1472q14 0 23 9t9 23z" />
<glyph unicode="&#xf0ce;" horiz-adv-x="1664" d="M512 160v192q0 14 -9 23t-23 9h-320q-14 0 -23 -9t-9 -23v-192q0 -14 9 -23t23 -9h320q14 0 23 9t9 23zM512 544v192q0 14 -9 23t-23 9h-320q-14 0 -23 -9t-9 -23v-192q0 -14 9 -23t23 -9h320q14 0 23 9t9 23zM1024 160v192q0 14 -9 23t-23 9h-320q-14 0 -23 -9t-9 -23 v-192q0 -14 9 -23t23 -9h320q14 0 23 9t9 23zM512 928v192q0 14 -9 23t-23 9h-320q-14 0 -23 -9t-9 -23v-192q0 -14 9 -23t23 -9h320q14 0 23 9t9 23zM1024 544v192q0 14 -9 23t-23 9h-320q-14 0 -23 -9t-9 -23v-192q0 -14 9 -23t23 -9h320q14 0 23 9t9 23zM1536 160v192 q0 14 -9 23t-23 9h-320q-14 0 -23 -9t-9 -23v-192q0 -14 9 -23t23 -9h320q14 0 23 9t9 23zM1024 928v192q0 14 -9 23t-23 9h-320q-14 0 -23 -9t-9 -23v-192q0 -14 9 -23t23 -9h320q14 0 23 9t9 23zM1536 544v192q0 14 -9 23t-23 9h-320q-14 0 -23 -9t-9 -23v-192 q0 -14 9 -23t23 -9h320q14 0 23 9t9 23zM1536 928v192q0 14 -9 23t-23 9h-320q-14 0 -23 -9t-9 -23v-192q0 -14 9 -23t23 -9h320q14 0 23 9t9 23zM1664 1248v-1088q0 -66 -47 -113t-113 -47h-1344q-66 0 -113 47t-47 113v1088q0 66 47 113t113 47h1344q66 0 113 -47t47 -113 z" />
<glyph unicode="&#xf0d0;" horiz-adv-x="1664" d="M1190 955l293 293l-107 107l-293 -293zM1637 1248q0 -27 -18 -45l-1286 -1286q-18 -18 -45 -18t-45 18l-198 198q-18 18 -18 45t18 45l1286 1286q18 18 45 18t45 -18l198 -198q18 -18 18 -45zM286 1438l98 -30l-98 -30l-30 -98l-30 98l-98 30l98 30l30 98zM636 1276 l196 -60l-196 -60l-60 -196l-60 196l-196 60l196 60l60 196zM1566 798l98 -30l-98 -30l-30 -98l-30 98l-98 30l98 30l30 98zM926 1438l98 -30l-98 -30l-30 -98l-30 98l-98 30l98 30l30 98z" />
<glyph unicode="&#xf0d1;" horiz-adv-x="1792" d="M640 128q0 52 -38 90t-90 38t-90 -38t-38 -90t38 -90t90 -38t90 38t38 90zM256 640h384v256h-158q-13 0 -22 -9l-195 -195q-9 -9 -9 -22v-30zM1536 128q0 52 -38 90t-90 38t-90 -38t-38 -90t38 -90t90 -38t90 38t38 90zM1792 1216v-1024q0 -15 -4 -26.5t-13.5 -18.5 t-16.5 -11.5t-23.5 -6t-22.5 -2t-25.5 0t-22.5 0.5q0 -106 -75 -181t-181 -75t-181 75t-75 181h-384q0 -106 -75 -181t-181 -75t-181 75t-75 181h-64q-3 0 -22.5 -0.5t-25.5 0t-22.5 2t-23.5 6t-16.5 11.5t-13.5 18.5t-4 26.5q0 26 19 45t45 19v320q0 8 -0.5 35t0 38 t2.5 34.5t6.5 37t14 30.5t22.5 30l198 198q19 19 50.5 32t58.5 13h160v192q0 26 19 45t45 19h1024q26 0 45 -19t19 -45z" />
<glyph unicode="&#xf0d2;" d="M1536 640q0 -209 -103 -385.5t-279.5 -279.5t-385.5 -103q-111 0 -218 32q59 93 78 164q9 34 54 211q20 -30EE8711A5B" />
<glyph unicode="&#xf0d3;" d="M1248 1408q119 0 203.5 -84.5t84.5 -203.5v-960q0 -119 -84.5 -203.5t-203.5 -84.5h-725q85 122 108 210q9 34 53 209q21 -39 73.5 -67t112.5 -28q181 0 295.5 147.5t114.5 373.5q0 84 -35 162.5t-96.5 139t-152.5 97t-197 36.5q-104 0 -194.5 -28.5t-153 -76.5 t-107.5 -109.5t-66.5 -128t-21.5 -132.5q0 -102 39.5 -180t116.5 -110q13 -5 23.5 0t14.5 19q10 44 15 61q6 23 -11 42q-50 62 -50 150q0 150 103.5 256.5t270.5 106.5q149 0 232.5 -81t83.5 -210q0 -168 -67.5 -286t-173.5 -118q-60 0 -97 43.5t-23 103.5q8 34 26.5 92.5 t29.5 102t11 74.5q0 49 -26.5 81.5t-75.5 32.5q-61 0 -103.5 -56.5t-42.5 -139.5q0 -72 24 -121l-98 -414q-24 -100 -7 -254h-183q-119 0 -203.5 84.5t-84.5 203.5v960q0 119 84.5 203.5t203.5 84.5h960z" />
<glyph unicode="&#xf0d4;" d="M678 -57q0 -38 -10 -71h-380q-95 0 -171.5 56.5t-103.5 147.5q24 45 69 77.5t100 49.5t107 24t107 7q32 0 49 -2q6 -4 30.5 -21t33 -23t31 -23t32 -25.5t27.5 -25.5t26.5 -29.5t21 -30.5t17.5 -34.5t9.5 -36t4.5 -40.5zM385 294q-234 -7 -385 -85v433q103 -118 273 -118 q32 0 70 5q-21 -61 -21 -86q0 -67 63 -149zM558 805q0 -100 -43.5 -160.5t-140.5 -60.5q-51 0 -97 26t-78 67.5t-56 93.5t-35.5 104t-11.5 99q0 96 51.5 165t144.5 69q66 0 119 -41t84 -104t47 -130t16 -128zM1536 896v-736q0 -119 -84.5 -203.5t-203.5 -84.5h-468 q39 73 39 157q0 66 -22 122.5t-55.5 93t-72 71t-72 59.5t-55.5 54.5t-22 59.5q0 36 23 68t56 61.5t65.5 64.5t55.5 93t23 131t-26.5 145.5t-75.5 118.5q-6 6 -14 11t-12.5 7.5t-10 9.5t-10.5 17h135l135 64h-437q-138 0 -244.5 -38.5t-182.5 -133.5q0 126 81 213t207 87h960 q119 0 203.5 -84.5t84.5 -203.5v-96h-256v256h-128v-256h-256v-128h256v-256h128v256h256z" />
<glyph unicode="&#xf0d5;" horiz-adv-x="1664" d="M876 71q0 21 -4.5 40.5t-9.5 36t-17.5 34.5t-21 30.5t-26.5 29.5t-27.5 25.5t-32 25.5t-31 23t-33 23t-30.5 21q-17 2 -50 2q-54 0 -106 -7t-108 -25t-98 -46t-69 -75t-27 -107q0 -68 35.5 -121.5t93 -84t120.5 -45.5t127 -15q59 0 112.5 12.5t100.5 39t74.5 73.5 t27.5 110zM756 933q0 60 -16.5 127.5t-47 130.5t-84 104t-119.5 41q-93 0 -144 -69t-51 -165q0 -47 11.5 -99t35.5 -104t56 -93.5t78 -67.5t97 -26q97 0 140.5 60.5t43.5 160.5zM625 1408h437l-135 -79h-135q71 -45 110 -126t39 -169q0 -74 -23 -131.5t-56 -92.5t-66 -64.5 t-56 -61t-23 -67.5q0 -26 16.5 -51t43 -48t58.5 -48t64 -55.5t58.5 -66t43 -85t16.5 -106.5q0 -160 -140 -282q-152 -131 -420 -131q-59 0 -119.5 10t-122 33.5t-108.5 58t-77 89t-30 121.5q0 61 37 135q32 64 96 110.5t145 71t155 36t150 13.5q-64 83 -64 149q0 12 2 23.5 t5 19.5t8 21.5t7 21.5q-40 -5 -70 -5q-149 0 -255.5 98t-106.5 246q0 140 95 250.5t234 141.5q94 20 187 20zM1664 1152v-128h-256v-256h-128v256h-256v128h256v256h128v-256h256z" />
<glyph unicode="&#xf0d6;" horiz-adv-x="1920" d="M768 384h384v96h-128v448h-114l-148 -137l77 -80q42 37 55 57h2v-288h-128v-96zM1280 640q0 -70 -21 -142t-59.5 -134t-101.5 -101t-138 -39t-138 39t-101.5 101t-59.5 134t-21 142t21 142t59.5 134t101.5 101t138 39t138 -39t101.5 -101t59.5 -134t21 -142zM1792 384 v512q-106 0 -181 75t-75 181h-1152q0 -106 -75 -181t-181 -75v-512q106 0 181 -75t75 -181h1152q0 106 75 181t181 75zM1920 1216v-1152q0 -26 -19 -45t-45 -19h-1792q-26 0 -45 19t-19 45v1152q0 26 19 45t45 19h1792q26 0 45 -19t19 -45z" />
<glyph unicode="&#xf0d7;" horiz-adv-x="1024" d="M1024 832q0 -26 -19 -45l-448 -448q-19 -19 -45 -19t-45 19l-448 448q-19 19 -19 45t19 45t45 19h896q26 0 45 -19t19 -45z" />
<glyph unicode="&#xf0d8;" horiz-adv-x="1024" d="M1024 320q0 -26 -19 -45t-45 -19h-896q-26 0 -45 19t-19 45t19 45l448 448q19 19 45 19t45 -19l448 -448q19 -19 19 -45z" />
<glyph unicode="&#xf0d9;" horiz-adv-x="640" d="M640 1088v-896q0 -26 -19 -45t-45 -19t-45 19l-448 448q-19 19 -19 45t19 45l448 448q19 19 45 19t45 -19t19 -45z" />
<glyph unicode="&#xf0da;" horiz-adv-x="640" d="M576 640q0 -26 -19 -45l-448 -448q-19 -19 -45 -19t-45 19t-19 45v896q0 26 19 45t45 19t45 -19l448 -448q19 -19 19 -45z" />
<glyph unicode="&#xf0db;" horiz-adv-x="1664" d="M160 0h608v1152h-640v-1120q0 -13 9.5 -22.5t22.5 -9.5zM1536 32v1120h-640v-1152h608q13 0 22.5 9.5t9.5 22.5zM1664 1248v-1216q0 -66 -47 -113t-113 -47h-1344q-66 0 -113 47t-47 113v1216q0 66 47 113t113 47h1344q66 0 113 -47t47 -113z" />
<glyph unicode="&#xf0dc;" horiz-adv-x="1024" d="M1024 448q0 -26 -19 -45l-448 -448q-19 -19 -45 -19t-45 19l-448 448q-19 19 -19 45t19 45t45 19h896q26 0 45 -19t19 -45zM1024 832q0 -26 -19 -45t-45 -19h-896q-26 0 -45 19t-19 45t19 45l448 448q19 19 45 19t45 -19l448 -448q19 -19 19 -45z" />
<glyph unicode="&#xf0dd;" horiz-adv-x="1024" d="M1024 448q0 -26 -19 -45l-448 -448q-19 -19 -45 -19t-45 19l-448 448q-19 19 -19 45t19 45t45 19h896q26 0 45 -19t19 -45z" />
<glyph unicode="&#xf0de;" horiz-adv-x="1024" d="M1024 832q0 -26 -19 -45t-45 -19h-896q-26 0 -45 19t-19 45t19 45l448 448q19 19 45 19t45 -19l448 -448q19 -19 19 -45z" />
<glyph unicode="&#xf0e0;" horiz-adv-x="1792" d="M1792 826v-794q0 -66 -47 -113t-113 -47h-1472q-66 0 -113 47t-47 113v794q44 -49 101 -87q362 -246 497 -345q57 -42 92.5 -65.5t94.5 -48t110 -24.5h1h1q51 0 110 24.5t94.5 48t92.5 65.5q170 123 498 345q57 39 100 87zM1792 1120q0 -79 -49 -151t-122 -123 q-376 -261 -468 -325q-10 -7 -42.5 -30.5t-54 -38t-52 -32.5t-57.5 -27t-50 -9h-1h-1q-23 0 -50 9t-57.5 27t-52 32.5t-54 38t-42.5 30.5q-91 64 -262 182.5t-205 142.5q-62 42 -117 115.5t-55 136.5q0 78 41.5 130t118.5 52h1472q65 0 112.5 -47t47.5 -113z" />
<glyph unicode="&#xf0e1;" d="M349 911v-991h-330v991h330zM370 1217q1 -73 -50.5 -122t-135.5 -49h-2q-82 0 -132 49t-50 122q0 74 51.5 0AF3396A83" />
<glyph unicode="&#xf0e2;" d="M1536 640q0 -156 -61 -298t-164 -245t-245 -164t-298 -61q-172 0 -327 72.5t-264 204.5q-7 10 -6.5 22.5t8.5 20.5l137 138q10 9 25 9q16 -2 23 -12q73 -95 179 -147t225 -52q104 0 198.5 40.5t163.5 109.5t109.5 163.5t40.5 198.5t-40.5 198.5t-109.5 163.5 t-163.5 109.5t-198.5 40.5q-98 0 -188 -35.5t-160 -101.5l137 -138q31 -30 14 -69q-17 -40 -59 -40h-448q-26 0 -45 19t-19 45v448q0 42 40 59q39 17 69 -14l130 -129q107 101 244.5 156.5t284.5 55.5q156 0 298 -61t245 -164t164 -245t61 -298z" />
<glyph unicode="&#xf0e3;" horiz-adv-x="1792" d="M1771 0q0 -53 -37 -90l-107 -108q-39 -37 -91 -37q-53 0 -90 37l-363 364q-38 36 -38 90q0 53 43 96l-256 256l-126 -126q-14 -14 -34 -14t-34 14q2 -2 12.5 -12t12.5 -13t10 -11.5t10 -13.5t6 -13.5t5.5 -16.5t1.5 -18q0 -38 -28 -68q-3 -3 -16.5 -18t-19 -20.5 t-18.5 -16.5t-22 -15.5t-22 -9t-26 -4.5q-40 0 -68 28l-408 408q-28 28 -28 68q0 13 4.5 26t9 22t15.5 22t16.5 18.5t20.5 19t18 16.5q30 28 68 28q10 0 18 -1.5t16.5 -5.5t13.5 -6t13.5 -10t11.5 -10t13 -12.5t12 -12.5q-14 14 -14 34t14 34l348 348q14 14 34 14t34 -14 q-2 2 -12.5 12t-12.5 13t-10 11.5t-10 13.5t-6 13.5t-5.5 16.5t-1.5 18q0 38 28 68q3 3 16.5 18t19 20.5t18.5 16.5t22 15.5t22 9t26 4.5q40 0 68 -28l408 -408q28 -28 28 -68q0 -13 -4.5 -26t-9 -22t-15.5 -22t-16.5 -18.5t-20.5 -19t-18 -16.5q-30 -28 -68 -28 q-10 0 -18 1.5t-16.5 5.5t-13.5 6t-13.5 10t-11.5 10t-13 12.5t-12 12.5q14 -14 14 -34t-14 -34l-126 -126l256 -256q43 43 96 43q52 0 91 -37l363 -363q37 -39 37 -91z" />
<glyph unicode="&#xf0e4;" horiz-adv-x="1792" d="M384 384q0 53 -37.5 90.5t-90.5 37.5t-90.5 -37.5t-37.5 -90.5t37.5 -90.5t90.5 -37.5t90.5 37.5t37.5 90.5zM576 832q0 53 -37.5 90.5t-90.5 37.5t-90.5 -37.5t-37.5 -90.5t37.5 -90.5t90.5 -37.5t90.5 37.5t37.5 90.5zM1004 351l101 382q6 26 -7.5 48.5t-38.5 29.5 t-48 -6.5t-30 -39.5l-101 -382q-60 -5 -107 -43.5t-63 -98.5q-20 -77 20 -146t117 -89t146 20t89 117q16 60 -6 117t-72 91zM1664 384q0 53 -37.5 90.5t-90.5 37.5t-90.5 -37.5t-37.5 -90.5t37.5 -90.5t90.5 -37.5t90.5 37.5t37.5 90.5zM1024 1024q0 53 -37.5 90.5 t-90.5 37.5t-90.5 -37.5t-37.5 -90.5t37.5 -90.5t90.5 -37.5t90.5 37.5t37.5 90.5zM1472 832q0 53 -37.5 90.5t-90.5 37.5t-90.5 -37.5t-37.5 -90.5t37.5 -90.5t90.5 -37.5t90.5 37.5t37.5 90.5zM1792 384q0 -261 -141 -483q-19 -29 -54 -29h-1402q-35 0 -54 29 q-141 221 -141 483q0 182 71 348t191 286t286 191t348 71t348 -71t286 -191t191 -286t71 -348z" />
<glyph unicode="&#xf0e5;" horiz-adv-x="1792" d="M896 1152q-204 0 -381.5 -69.5t-282 -187.5t-104.5 -255q0 -112 71.5 -213.5t201.5 -175.5l87 -50l-27 -960D977E7A01" />
<glyph unicode="&#xf0e6;" horiz-adv-x="1792" d="M704 1152q-153 0 -286 -52t-211.5 -141t-78.5 -191q0 -82 53 -158t149 -132l97 -56l-35 -84q34 20 62 39l4032E1DFAA1" />
<glyph unicode="&#xf0e7;" horiz-adv-x="896" d="M885 970q18 -20 7 -44l-540 -1157q-13 -25 -42 -25q-4 0 -14 2q-17 5 -25.5 19t-4.5 30l197 808l-406 -101q-4 -1 -12 -1q-18 0 -31 11q-18 15 -13 39l201 825q4 14 16 23t28 9h328q19 0 32 -12.5t13 -29.5q0 -8 -5 -18l-171 -463l396 98q8 2 12 2q19 0 34 -15z" />
<glyph unicode="&#xf0e8;" horiz-adv-x="1792" d="M1792 288v-320q0 -40 -28 -68t-68 -28h-320q-40 0 -68 28t-28 68v320q0 40 28 68t68 28h96v192h-512v-192h96q40 0 68 -28t28 -68v-320q0 -40 -28 -68t-68 -28h-320q-40 0 -68 28t-28 68v320q0 40 28 68t68 28h96v192h-512v-192h96q40 0 68 -28t28 -68v-320 q0 -40 -28 -68t-68 -28h-320q-40 0 -68 28t-28 68v320q0 40 28 68t68 28h96v192q0 52 38 90t90 38h512v192h-96q-40 0 -68 28t-28 68v320q0 40 28 68t68 28h320q40 0 68 -28t28 -68v-320q0 -40 -28 -68t-68 -28h-96v-192h512q52 0 90 -38t38 -90v-192h96q40 0 68 -28t28 -68 z" />
<glyph unicode="&#xf0e9;" horiz-adv-x="1664" d="M896 708v-580q0 -104 -76 -180t-180 -76t-180 76t-76 180q0 26 19 45t45 19t45 -19t19 -45q0 -50 39 -89t89 -39t89 39t39 89v580q33 11 64 11t64 -11zM1664 681q0 -13 -9.5 -22.5t-22.5 -9.5q-11 0 -23 10q-49 46 -93 69t-102 23q-68 0 -128 -37t-103 -97 q-7 -10 -17.5 -28t-14.5 -24q-11 -17 -28 -17q-18 0 -29 17q-4 6 -14.5 24t-17.5 28q-43 60 -102.5 97t-127.5 37t-127.5 -37t-102.5 -97q-7 -10 -17.5 -28t-14.5 -24q-11 -17 -29 -17q-17 0 -28 17q-4 6 -14.5 24t-17.5 28q-43 60 -103 97t-128 37q-58 0 -102 -23t-93 -69 q-12 -10 -23 -10q-13 0 -22.5 9.5t-9.5 22.5q0 5 1 7q45 183 172.5 319.5t298 204.5t360.5 68q140 0 274.5 -40t246.5 -113.5t194.5 -187t115.5 -251.5q1 -2 1 -7zM896 1408v-98q-42 2 -64 2t-64 -2v98q0 26 19 45t45 19t45 -19t19 -45z" />
<glyph unicode="&#xf0ea;" horiz-adv-x="1792" d="M768 -128h896v640h-416q-40 0 -68 28t-28 68v416h-384v-1152zM1024 1312v64q0 13 -9.5 22.5t-22.5 9.5h-704q-13 0 -22.5 -9.5t-9.5 -22.5v-64q0 -13 9.5 -22.5t22.5 -9.5h704q13 0 22.5 9.5t9.5 22.5zM1280 640h299l-299 299v-299zM1792 512v-672q0 -40 -28 -68t-68 -28 h-960q-40 0 -68 28t-28 68v160h-544q-40 0 -68 28t-28 68v1344q0 40 28 68t68 28h1088q40 0 68 -28t28 -68v-328q21 -13 36 -28l408 -408q28 -28 48 -76t20 -88z" />
<glyph unicode="&#xf0eb;" horiz-adv-x="1024" d="M736 960q0 -13 -9.5 -22.5t-22.5 -9.5t-22.5 9.5t-9.5 22.5q0 46 -54 71t-106 25q-13 0 -22.5 9.5t-9.5 220DA55F4AD3" />
<glyph unicode="&#xf0ec;" horiz-adv-x="1792" d="M1792 352v-192q0 -13 -9.5 -22.5t-22.5 -9.5h-1376v-192q0 -13 -9.5 -22.5t-22.5 -9.5q-12 0 -24 10l-319 320q-9 9 -9 22q0 14 9 23l320 320q9 9 23 9q13 0 22.5 -9.5t9.5 -22.5v-192h1376q13 0 22.5 -9.5t9.5 -22.5zM1792 896q0 -14 -9 -23l-320 -320q-9 -9 -23 -9 q-13 0 -22.5 9.5t-9.5 22.5v192h-1376q-13 0 -22.5 9.5t-9.5 22.5v192q0 13 9.5 22.5t22.5 9.5h1376v192q0 14 9 23t23 9q12 0 24 -10l319 -319q9 -9 9 -23z" />
<glyph unicode="&#xf0ed;" horiz-adv-x="1920" d="M1280 608q0 14 -9 23t-23 9h-224v352q0 13 -9.5 22.5t-22.5 9.5h-192q-13 0 -22.5 -9.5t-9.5 -22.5v-352h-0F917CCAD0" />
<glyph unicode="&#xf0ee;" horiz-adv-x="1920" d="M1280 672q0 14 -9 23l-352 352q-9 9 -23 9t-23 -9l-351 -351q-10 -12 -10 -24q0 -14 9 -23t23 -9h224v-3520120C01A9E" />
<glyph unicode="&#xf0f0;" horiz-adv-x="1408" d="M384 192q0 -26 -19 -45t-45 -19t-45 19t-19 45t19 45t45 19t45 -19t19 -45zM1408 131q0 -121 -73 -190t-190984725AF9" />
<glyph unicode="&#xf0f1;" horiz-adv-x="1408" d="M1280 832q0 26 -19 45t-45 19t-45 -19t-19 -45t19 -45t45 -19t45 19t19 45zM1408 832q0 -62 -35.5 -111t-92.5 -70v-395q0 -159 -131.5 -271.5t-316.5 -112.5t-316.5 112.5t-131.5 271.5v132q-164 20 -274 128t-110 252v512q0 26 19 45t45 19q6 0 16 -2q17 30 47 48 t65 18q53 0 90.5 -37.5t37.5 -90.5t-37.5 -90.5t-90.5 -37.5q-33 0 -64 18v-402q0 -106 94 -181t226 -75t226 75t94 181v402q-31 -18 -64 -18q-53 0 -90.5 37.5t-37.5 90.5t37.5 90.5t90.5 37.5q35 0 65 -18t47 -48q10 2 16 2q26 0 45 -19t19 -45v-512q0 -144 -110 -252 t-274 -128v-132q0 -106 94 -181t226 -75t226 75t94 181v395q-57 21 -92.5 70t-35.5 111q0 80 56 136t136 56t136 -56t56 -136z" />
<glyph unicode="&#xf0f2;" horiz-adv-x="1792" d="M640 1152h512v128h-512v-128zM288 1152v-1280h-64q-92 0 -158 66t-66 158v832q0 92 66 158t158 66h64zM1408 1152v-1280h-1024v1280h128v160q0 40 28 68t68 28h576q40 0 68 -28t28 -68v-160h128zM1792 928v-832q0 -92 -66 -158t-158 -66h-64v1280h64q92 0 158 -66 t66 -158z" />
<glyph unicode="&#xf0f3;" horiz-adv-x="1664" d="M848 -160q0 16 -16 16q-59 0 -101.5 42.5t-42.5 101.5q0 16 -16 16t-16 -16q0 -73 51.5 -124.5t124.5 -51.040C085A3B" />
<glyph unicode="&#xf0f4;" horiz-adv-x="1920" d="M1664 896q0 80 -56 136t-136 56h-64v-384h64q80 0 136 56t56 136zM0 128h1792q0 -106 -75 -181t-181 -75h-0F95CB3ACA" />
<glyph unicode="&#xf0f5;" horiz-adv-x="1408" d="M640 1472v-640q0 -61 -35.5 -111t-92.5 -70v-779q0 -52 -38 -90t-90 -38h-128q-52 0 -90 38t-38 90v779q-57 20 -92.5 70t-35.5 111v640q0 26 19 45t45 19t45 -19t19 -45v-416q0 -26 19 -45t45 -19t45 19t19 45v416q0 26 19 45t45 19t45 -19t19 -45v-416q0 -26 19 -45 t45 -19t45 19t19 45v416q0 26 19 45t45 19t45 -19t19 -45zM1408 1472v-1600q0 -52 -38 -90t-90 -38h-128q-52 0 -90 38t-38 90v512h-224q-13 0 -22.5 9.5t-9.5 22.5v800q0 132 94 226t226 94h256q26 0 45 -19t19 -45z" />
<glyph unicode="&#xf0f6;" horiz-adv-x="1280" d="M1024 352v-64q0 -14 -9 -23t-23 -9h-704q-14 0 -23 9t-9 23v64q0 14 9 23t23 9h704q14 0 23 -9t9 -23zM1024 608v-64q0 -14 -9 -23t-23 -9h-704q-14 0 -23 9t-9 23v64q0 14 9 23t23 9h704q14 0 23 -9t9 -23zM128 0h1024v768h-416q-40 0 -68 28t-28 68v416h-512v-1280z M768 896h299l-299 299v-299zM1280 768v-800q0 -40 -28 -68t-68 -28h-1088q-40 0 -68 28t-28 68v1344q0 40 28 68t68 28h544q40 0 88 -20t76 -48l408 -408q28 -28 48 -76t20 -88z" />
<glyph unicode="&#xf0f7;" horiz-adv-x="1408" d="M384 224v-64q0 -13 -9.5 -22.5t-22.5 -9.5h-64q-13 0 -22.5 9.5t-9.5 22.5v64q0 13 9.5 22.5t22.5 9.5h64q13 0 22.5 -9.5t9.5 -22.5zM384 480v-64q0 -13 -9.5 -22.5t-22.5 -9.5h-64q-13 0 -22.5 9.5t-9.5 22.5v64q0 13 9.5 22.5t22.5 9.5h64q13 0 22.5 -9.5t9.5 -22.5z M640 480v-64q0 -13 -9.5 -22.5t-22.5 -9.5h-64q-13 0 -22.5 9.5t-9.5 22.5v64q0 13 9.5 22.5t22.5 9.5h64q13 0 22.5 -9.5t9.5 -22.5zM384 736v-64q0 -13 -9.5 -22.5t-22.5 -9.5h-64q-13 0 -22.5 9.5t-9.5 22.5v64q0 13 9.5 22.5t22.5 9.5h64q13 0 22.5 -9.5t9.5 -22.5z M1152 224v-64q0 -13 -9.5 -22.5t-22.5 -9.5h-64q-13 0 -22.5 9.5t-9.5 22.5v64q0 13 9.5 22.5t22.5 9.5h64q13 0 22.5 -9.5t9.5 -22.5zM896 480v-64q0 -13 -9.5 -22.5t-22.5 -9.5h-64q-13 0 -22.5 9.5t-9.5 22.5v64q0 13 9.5 22.5t22.5 9.5h64q13 0 22.5 -9.5t9.5 -22.5z M640 736v-64q0 -13 -9.5 -22.5t-22.5 -9.5h-64q-13 0 -22.5 9.5t-9.5 22.5v64q0 13 9.5 22.5t22.5 9.5h64q13 0 22.5 -9.5t9.5 -22.5zM384 992v-64q0 -13 -9.5 -22.5t-22.5 -9.5h-64q-13 0 -22.5 9.5t-9.5 22.5v64q0 13 9.5 22.5t22.5 9.5h64q13 0 22.5 -9.5t9.5 -22.5z M1152 480v-64q0 -13 -9.5 -22.5t-22.5 -9.5h-64q-13 0 -22.5 9.5t-9.5 22.5v64q0 13 9.5 22.5t22.5 9.5h64q13 0 22.5 -9.5t9.5 -22.5zM896 736v-64q0 -13 -9.5 -22.5t-22.5 -9.5h-64q-13 0 -22.5 9.5t-9.5 22.5v64q0 13 9.5 22.5t22.5 9.5h64q13 0 22.5 -9.5t9.5 -22.5z M640 992v-64q0 -13 -9.5 -22.5t-22.5 -9.5h-64q-13 0 -22.5 9.5t-9.5 22.5v64q0 13 9.5 22.5t22.5 9.5h64q13 0 22.5 -9.5t9.5 -22.5zM384 1248v-64q0 -13 -9.5 -22.5t-22.5 -9.5h-64q-13 0 -22.5 9.5t-9.5 22.5v64q0 13 9.5 22.5t22.5 9.5h64q13 0 22.5 -9.5t9.5 -22.5z M1152 736v-64q0 -13 -9.5 -22.5t-22.5 -9.5h-64q-13 0 -22.5 9.5t-9.5 22.5v64q0 13 9.5 22.5t22.5 9.5h64q13 0 22.5 -9.5t9.5 -22.5zM896 992v-64q0 -13 -9.5 -22.5t-22.5 -9.5h-64q-13 0 -22.5 9.5t-9.5 22.5v64q0 13 9.5 22.5t22.5 9.5h64q13 0 22.5 -9.5t9.5 -22.5z M640 1248v-64q0 -13 -9.5 -22.5t-22.5 -9.5h-64q-13 0 -22.5 9.5t-9.5 22.5v64q0 13 9.5 22.5t22.5 9.5h64q13 0 22.5 -9.5t9.5 -22.5zM1152 992v-64q0 -13 -9.5 -22.5t-22.5 -9.5h-64q-13 0 -22.5 9.5t-9.5 22.5v64q0 13 9.5 22.5t22.5 9.5h64q13 0 22.5 -9.5t9.5 -22.5z M896 1248v-64q0 -13 -9.5 -22.5t-22.5 -9.5h-64q-13 0 -22.5 9.5t-9.5 22.5v64q0 13 9.5 22.5t22.5 9.5h64q13 0 22.5 -9.5t9.5 -22.5zM1152 1248v-64q0 -13 -9.5 -22.5t-22.5 -9.5h-64q-13 0 -22.5 9.5t-9.5 22.5v64q0 13 9.5 22.5t22.5 9.5h64q13 0 22.5 -9.5t9.5 -22.5z M896 -128h384v1536h-1152v-1536h384v224q0 13 9.5 22.5t22.5 9.5h320q13 0 22.5 -9.5t9.5 -22.5v-224zM1408 1472v-1664q0 -26 -19 -45t-45 -19h-1280q-26 0 -45 19t-19 45v1664q0 26 19 45t45 19h1280q26 0 45 -19t19 -45z" />
<glyph unicode="&#xf0f8;" horiz-adv-x="1408" d="M384 224v-64q0 -13 -9.5 -22.5t-22.5 -9.5h-64q-13 0 -22.5 9.5t-9.5 22.5v64q0 13 9.5 22.5t22.5 9.5h64q13 0 22.5 -9.5t9.5 -22.5zM384 480v-64q0 -13 -9.5 -22.5t-22.5 -9.5h-64q-13 0 -22.5 9.5t-9.5 22.5v64q0 13 9.5 22.5t22.5 9.5h64q13 0 22.5 -9.5t9.5 -22.5z M640 480v-64q0 -13 -9.5 -22.5t-22.5 -9.5h-64q-13 0 -22.5 9.5t-9.5 22.5v64q0 13 9.5 22.5t22.5 9.5h64q13 0 22.5 -9.5t9.5 -22.5zM384 736v-64q0 -13 -9.5 -22.5t-22.5 -9.5h-64q-13 0 -22.5 9.5t-9.5 22.5v64q0 13 9.5 22.5t22.5 9.5h64q13 0 22.5 -9.5t9.5 -22.5z M1152 224v-64q0 -13 -9.5 -22.5t-22.5 -9.5h-64q-13 0 -22.5 9.5t-9.5 22.5v64q0 13 9.5 22.5t22.5 9.5h64q13 0 22.5 -9.5t9.5 -22.5zM896 480v-64q0 -13 -9.5 -22.5t-22.5 -9.5h-64q-13 0 -22.5 9.5t-9.5 22.5v64q0 13 9.5 22.5t22.5 9.5h64q13 0 22.5 -9.5t9.5 -22.5z M640 736v-64q0 -13 -9.5 -22.5t-22.5 -9.5h-64q-13 0 -22.5 9.5t-9.5 22.5v64q0 13 9.5 22.5t22.5 9.5h64q13 0 22.5 -9.5t9.5 -22.5zM1152 480v-64q0 -13 -9.5 -22.5t-22.5 -9.5h-64q-13 0 -22.5 9.5t-9.5 22.5v64q0 13 9.5 22.5t22.5 9.5h64q13 0 22.5 -9.5t9.5 -22.5z M896 736v-64q0 -13 -9.5 -22.5t-22.5 -9.5h-64q-13 0 -22.5 9.5t-9.5 22.5v64q0 13 9.5 22.5t22.5 9.5h64q13 0 22.5 -9.5t9.5 -22.5zM1152 736v-64q0 -13 -9.5 -22.5t-22.5 -9.5h-64q-13 0 -22.5 9.5t-9.5 22.5v64q0 13 9.5 22.5t22.5 9.5h64q13 0 22.5 -9.5t9.5 -22.5z M896 -128h384v1152h-256v-32q0 -40 -28 -68t-68 -28h-448q-40 0 -68 28t-28 68v32h-256v-1152h384v224q0 13 9.5 22.5t22.5 9.5h320q13 0 22.5 -9.5t9.5 -22.5v-224zM896 1056v320q0 13 -9.5 22.5t-22.5 9.5h-64q-13 0 -22.5 -9.5t-9.5 -22.5v-96h-128v96q0 13 -9.5 22.5 t-22.5 9.5h-64q-13 0 -22.5 -9.5t-9.5 -22.5v-320q0 -13 9.5 -22.5t22.5 -9.5h64q13 0 22.5 9.5t9.5 22.5v96h128v-96q0 -13 9.5 -22.5t22.5 -9.5h64q13 0 22.5 9.5t9.5 22.5zM1408 1088v-1280q0 -26 -19 -45t-45 -19h-1280q-26 0 -45 19t-19 45v1280q0 26 19 45t45 19h320 v288q0 40 28 68t68 28h448q40 0 68 -28t28 -68v-288h320q26 0 45 -19t19 -45z" />
<glyph unicode="&#xf0f9;" horiz-adv-x="1920" d="M640 128q0 53 -37.5 90.5t-90.5 37.5t-90.5 -37.5t-37.5 -90.5t37.5 -90.5t90.5 -37.5t90.5 37.5t37.5 90.5zM256 640h384v256h-158q-14 -2 -22 -9l-195 -195q-7 -12 -9 -22v-30zM1536 128q0 53 -37.5 90.5t-90.5 37.5t-90.5 -37.5t-37.5 -90.5t37.5 -90.5t90.5 -37.5 t90.5 37.5t37.5 90.5zM1664 800v192q0 14 -9 23t-23 9h-224v224q0 14 -9 23t-23 9h-192q-14 0 -23 -9t-9 -23v-224h-224q-14 0 -23 -9t-9 -23v-192q0 -14 9 -23t23 -9h224v-224q0 -14 9 -23t23 -9h192q14 0 23 9t9 23v224h224q14 0 23 9t9 23zM1920 1344v-1152 q0 -26 -19 -45t-45 -19h-192q0 -106 -75 -181t-181 -75t-181 75t-75 181h-384q0 -106 -75 -181t-181 -75t-181 75t-75 181h-128q-26 0 -45 19t-19 45t19 45t45 19v416q0 26 13 58t32 51l198 198q19 19 51 32t58 13h160v320q0 26 19 45t45 19h1152q26 0 45 -19t19 -45z" />
<glyph unicode="&#xf0fa;" horiz-adv-x="1792" d="M1280 416v192q0 14 -9 23t-23 9h-224v224q0 14 -9 23t-23 9h-192q-14 0 -23 -9t-9 -23v-224h-224q-14 0 -23 -9t-9 -23v-192q0 -14 9 -23t23 -9h224v-224q0 -14 9 -23t23 -9h192q14 0 23 9t9 23v224h224q14 0 23 9t9 23zM640 1152h512v128h-512v-128zM256 1152v-1280h-32 q-92 0 -158 66t-66 158v832q0 92 66 158t158 66h32zM1440 1152v-1280h-1088v1280h160v160q0 40 28 68t68 28h576q40 0 68 -28t28 -68v-160h160zM1792 928v-832q0 -92 -66 -158t-158 -66h-32v1280h32q92 0 158 -66t66 -158z" />
<glyph unicode="&#xf0fb;" horiz-adv-x="1920" d="M1920 576q-1 -32 -288 -96l-352 -32l-224 -64h-64l-293 -352h69q26 0 45 -4.5t19 -11.5t-19 -11.5t-45 -4.5h-96h-160h-64v32h64v416h-160l-192 -224h-96l-32 32v192h32v32h128v8l-192 24v128l192 24v8h-128v32h-32v192l32 32h96l192 -224h160v416h-64v32h64h160h96 q26 0 45 -4.5t19 -11.5t-19 -11.5t-45 -4.5h-69l293 -352h64l224 -64l352 -32q261 -58 287 -93z" />
<glyph unicode="&#xf0fc;" horiz-adv-x="1664" d="M640 640v384h-256v-256q0 -53 37.5 -90.5t90.5 -37.5h128zM1664 192v-192h-1152v192l128 192h-128q-159 0 -271.5 112.5t-112.5 271.5v320l-64 64l32 128h480l32 128h960l32 -192l-64 -32v-800z" />
<glyph unicode="&#xf0fd;" d="M1280 192v896q0 26 -19 45t-45 19h-128q-26 0 -45 -19t-19 -45v-320h-512v320q0 26 -19 45t-45 19h-128q-2042ECAFA61" />
<glyph unicode="&#xf0fe;" d="M1280 576v128q0 26 -19 45t-45 19h-320v320q0 26 -19 45t-45 19h-128q-26 0 -45 -19t-19 -45v-320h-320q-209F8E02A4C" />
<glyph unicode="&#xf100;" horiz-adv-x="1024" d="M627 160q0 -13 -10 -23l-50 -50q-10 -10 -23 -10t-23 10l-466 466q-10 10 -10 23t10 23l466 466q10 10 23 10t23 -10l50 -50q10 -10 10 -23t-10 -23l-393 -393l393 -393q10 -10 10 -23zM1011 160q0 -13 -10 -23l-50 -50q-10 -10 -23 -10t-23 10l-466 466q-10 10 -10 23 t10 23l466 466q10 10 23 10t23 -10l50 -50q10 -10 10 -23t-10 -23l-393 -393l393 -393q10 -10 10 -23z" />
<glyph unicode="&#xf101;" horiz-adv-x="1024" d="M595 576q0 -13 -10 -23l-466 -466q-10 -10 -23 -10t-23 10l-50 50q-10 10 -10 23t10 23l393 393l-393 393q-10 10 -10 23t10 23l50 50q10 10 23 10t23 -10l466 -466q10 -10 10 -23zM979 576q0 -13 -10 -23l-466 -466q-10 -10 -23 -10t-23 10l-50 50q-10 10 -10 23t10 23 l393 393l-393 393q-10 10 -10 23t10 23l50 50q10 10 23 10t23 -10l466 -466q10 -10 10 -23z" />
</font>
</defs>
</svg>
